osu file format v14

[General]
AudioFilename: 01 HAELEQUIN (Extended ver.).mp3
AudioLeadIn: 1500
PreviewTime: 219401
Countdown: 0
SampleSet: Normal
StackLeniency: 0.7
Mode: 3
LetterboxInBreaks: 0
WidescreenStoryboard: 0

[Editor]
DistanceSpacing: 0.8
BeatDivisor: 4
GridSize: 16
TimelineZoom: 1.8

[Metadata]
Title:HAELEQUIN (Extended ver.)
TitleUnicode:HAELEQUIN (Extended ver.)
Artist:orangentle / Yu_Asahina
ArtistUnicode:orangentle / Yu_Asahina
Creator:Fullerene-
Version:Jinjin's Dissociative 7K Identity Disorder
Source:
Tags:iJinjin SOUND VOLTEX II -infinite infection- BOF2012 BMS of fighters -Ein neuer Heiliger- HAELEQ∩INZ HAELEQUINZ C87
BeatmapID:620333
BeatmapSetID:272643

[Difficulty]
HPDrainRate:9
CircleSize:7
OverallDifficulty:8
ApproachRate:9
SliderMultiplier:1.4
SliderTickRate:1

[Events]
//Background and Video events
0,0,"bg.png",0,0
//Break Periods
//Storyboard Layer 0 (Background)
//Storyboard Layer 1 (Fail)
//Storyboard Layer 2 (Pass)
//Storyboard Layer 3 (Foreground)
//Storyboard Sound Samples

[TimingPoints]
1378,348.837209302326,4,1,1,40,1,0
1378,-100,4,1,1,40,0,0
22308,-100,4,1,1,30,0,0
26494,-100,4,1,1,50,0,1
36261,-100,4,1,1,50,0,0
36610,-100,4,1,1,50,0,1
39052,-100,4,1,1,45,0,0
66959,-100,4,1,1,50,0,0
103238,-100,4,1,1,40,0,0
122773,-100,4,1,1,50,0,0
189750,-100,4,1,1,55,0,1
200738,-100,4,1,1,50,0,0
200912,-100,4,1,1,55,0,1
206494,-100,4,1,1,50,0,0
214866,-100,4,1,1,60,0,1
220098,-100,4,1,1,60,0,0
220447,-100,4,1,1,55,0,1
239633,-100,4,1,1,55,0,0
239982,-100,4,1,1,55,0,1
265098,-100,4,1,1,50,0,0
284633,-100,4,1,1,50,0,0
292831,-100,4,1,1,35,0,1
298587,-100,4,1,1,35,0,0
298936,-100,4,1,1,35,0,1
302773,-100,4,1,1,30,0,0

[HitObjects]
475,192,680,128,0,1290:0:0:0:0:
36,192,680,128,0,1290:0:0:0:0:
256,192,854,128,0,1290:0:0:0:0:
36,192,1378,1,0,0:0:0:40:crashL.wav
256,192,1378,1,2,0:0:0:0:
475,192,1378,1,0,0:0:0:40:crashR.wav
109,192,1465,1,0,0:0:0:0:
182,192,1552,1,0,0:0:0:0:
256,192,1639,1,0,0:0:0:0:
329,192,1726,1,8,0:0:0:0:
475,192,1726,1,8,0:0:0:0:
256,192,1814,1,0,0:0:0:0:
182,192,1901,1,0,0:0:0:0:
109,192,1988,1,0,0:0:0:0:
36,192,2075,1,0,0:0:0:0:
109,192,2162,1,0,0:0:0:0:
182,192,2250,1,0,0:0:0:0:
256,192,2337,1,0,0:0:0:0:
329,192,2424,1,8,0:0:0:0:
475,192,2424,1,8,0:0:0:0:
256,192,2511,1,0,0:0:0:0:
182,192,2598,1,0,0:0:0:0:
109,192,2686,1,0,0:0:0:0:
36,192,2773,1,0,0:0:0:0:
109,192,2860,1,0,0:0:0:0:
182,192,2947,1,0,0:0:0:0:
256,192,3034,1,0,0:0:0:0:
329,192,3122,1,8,0:0:0:0:
475,192,3122,1,8,0:0:0:0:
256,192,3209,1,0,0:0:0:0:
182,192,3296,1,0,0:0:0:0:
109,192,3383,1,0,0:0:0:0:
36,192,3471,1,0,0:0:0:0:
109,192,3558,1,0,0:0:0:0:
182,192,3645,1,0,0:0:0:0:
256,192,3732,1,0,0:0:0:0:
329,192,3819,1,8,0:0:0:0:
475,192,3819,1,8,0:0:0:0:
256,192,3907,1,0,0:0:0:0:
182,192,3994,1,0,0:0:0:0:
109,192,4081,1,0,0:0:0:0:
36,192,4168,1,0,0:0:0:0:
109,192,4255,1,0,0:0:0:0:
182,192,4343,1,0,0:0:0:0:
256,192,4430,1,0,0:0:0:0:
329,192,4517,1,8,0:0:0:0:
475,192,4517,1,8,0:0:0:0:
256,192,4604,1,0,0:0:0:0:
182,192,4691,1,0,0:0:0:0:
109,192,4779,1,0,0:0:0:0:
36,192,4866,1,0,0:0:0:0:
109,192,4953,1,0,0:0:0:0:
182,192,5040,1,0,0:0:0:0:
256,192,5128,1,0,0:0:0:0:
329,192,5215,1,8,0:0:0:0:
475,192,5215,1,8,0:0:0:0:
256,192,5302,1,0,0:0:0:0:
182,192,5389,1,0,0:0:0:0:
109,192,5476,1,0,0:0:0:0:
36,192,5564,1,0,0:0:0:0:
109,192,5651,1,0,0:0:0:0:
182,192,5738,1,0,0:0:0:0:
256,192,5825,1,0,0:0:0:0:
329,192,5912,1,8,0:0:0:0:
475,192,5912,1,8,0:0:0:0:
256,192,6000,1,0,0:0:0:0:
182,192,6087,1,0,0:0:0:0:
109,192,6174,1,0,0:0:0:0:
36,192,6261,1,0,0:0:0:0:
109,192,6348,1,0,0:0:0:0:
182,192,6436,1,0,0:0:0:0:
256,192,6523,1,0,0:0:0:0:
329,192,6610,1,8,0:0:0:0:
36,192,6610,1,8,0:0:0:0:
256,192,6697,1,0,0:0:0:0:
329,192,6784,1,0,0:0:0:0:
402,192,6872,1,0,0:0:0:0:
475,192,6959,1,0,0:0:0:0:
402,192,7046,1,0,0:0:0:0:
329,192,7133,1,0,0:0:0:0:
182,192,7221,1,0,0:0:0:0:
109,192,7308,1,8,0:0:0:0:
36,192,7308,1,8,0:0:0:0:
182,192,7395,1,0,0:0:0:0:
329,192,7482,1,0,0:0:0:0:
402,192,7569,1,0,0:0:0:0:
475,192,7657,1,0,0:0:0:0:
402,192,7744,1,0,0:0:0:0:
329,192,7831,1,0,0:0:0:0:
182,192,7918,1,0,0:0:0:0:
109,192,8005,1,8,0:0:0:0:
36,192,8005,1,8,0:0:0:0:
182,192,8093,1,0,0:0:0:0:
329,192,8180,1,0,0:0:0:0:
402,192,8267,1,0,0:0:0:0:
475,192,8354,1,0,0:0:0:0:
402,192,8441,1,0,0:0:0:0:
329,192,8529,1,0,0:0:0:0:
182,192,8616,1,0,0:0:0:0:
109,192,8703,1,8,0:0:0:0:
36,192,8703,1,8,0:0:0:0:
182,192,8790,1,0,0:0:0:0:
329,192,8878,1,0,0:0:0:0:
402,192,8965,1,0,0:0:0:0:
475,192,9052,1,0,0:0:0:0:
402,192,9139,1,0,0:0:0:0:
329,192,9226,1,0,0:0:0:0:
256,192,9314,1,0,0:0:0:0:
182,192,9401,1,8,0:0:0:0:
36,192,9401,1,8,0:0:0:0:
256,192,9488,1,0,0:0:0:0:
329,192,9575,1,0,0:0:0:0:
402,192,9662,1,0,0:0:0:0:
36,192,9750,128,4,12540:0:0:0:0:
475,192,9750,1,4,0:0:0:0:
182,192,9750,1,0,0:0:0:0:
256,192,9837,1,0,0:0:0:0:
329,192,9924,1,0,0:0:0:0:
402,192,10011,1,0,0:0:0:0:
475,192,10098,1,8,0:0:0:0:
109,192,10098,1,8,0:0:0:0:
402,192,10186,1,0,0:0:0:0:
329,192,10273,1,0,0:0:0:0:
256,192,10360,1,0,0:0:0:0:
182,192,10447,1,0,0:0:0:0:
256,192,10534,1,0,0:0:0:0:
329,192,10622,1,0,0:0:0:0:
402,192,10709,1,0,0:0:0:0:
475,192,10796,1,8,0:0:0:0:
109,192,10796,1,8,0:0:0:0:
402,192,10883,1,0,0:0:0:0:
329,192,10971,1,0,0:0:0:0:
256,192,11058,1,0,0:0:0:0:
182,192,11145,1,0,0:0:0:0:
256,192,11232,1,0,0:0:0:0:
329,192,11319,1,0,0:0:0:0:
402,192,11407,1,0,0:0:0:0:
475,192,11494,1,8,0:0:0:0:
109,192,11494,1,8,0:0:0:0:
402,192,11581,1,0,0:0:0:0:
329,192,11668,1,0,0:0:0:0:
256,192,11755,1,0,0:0:0:0:
182,192,11843,1,0,0:0:0:0:
256,192,11930,1,0,0:0:0:0:
329,192,12017,1,0,0:0:0:0:
402,192,12104,1,0,0:0:0:0:
475,192,12191,1,0,0:0:0:0:
109,192,12191,1,8,0:0:0:0:
402,192,12279,1,0,0:0:0:0:
329,192,12366,1,2,0:0:0:0:
256,192,12366,1,0,0:0:0:0:
182,192,12366,1,2,0:0:0:0:
109,192,12453,1,0,0:0:0:0:
256,192,12540,1,4,0:0:0:0:
329,192,12540,1,2,0:0:0:0:
182,192,12540,1,2,0:0:0:0:
109,192,12628,1,0,0:0:0:0:
182,192,12715,1,4,0:0:0:0:
256,192,12802,1,0,0:0:0:0:
329,192,12889,1,8,0:0:0:0:
402,192,12889,1,8,0:0:0:0:
475,192,12889,1,2,0:0:0:0:
256,192,12976,1,0,0:0:0:0:
182,192,13064,1,0,0:0:0:0:
109,192,13151,1,0,0:0:0:0:
329,192,13238,1,2,0:0:0:0:
36,192,13238,1,0,0:0:0:0:
109,192,13325,1,0,0:0:0:0:
182,192,13412,1,0,0:0:0:0:
256,192,13500,1,0,0:0:0:0:
475,192,13587,1,2,0:0:0:0:
402,192,13587,1,8,0:0:0:0:
329,192,13587,1,8,0:0:0:0:
256,192,13674,1,0,0:0:0:0:
182,192,13761,1,0,0:0:0:0:
109,192,13848,1,0,0:0:0:0:
36,192,13936,1,0,0:0:0:0:
402,192,13936,1,2,0:0:0:0:
109,192,14023,1,0,0:0:0:0:
182,192,14110,1,0,0:0:0:0:
329,192,14197,1,0,0:0:0:0:
402,192,14284,1,2,0:0:0:0:
109,192,14284,1,8,0:0:0:0:
36,192,14284,1,8,0:0:0:0:
329,192,14372,1,0,0:0:0:0:
256,192,14459,1,0,0:0:0:0:
182,192,14546,1,0,0:0:0:0:
109,192,14633,1,0,0:0:0:0:
402,192,14633,1,2,0:0:0:0:
182,192,14721,1,0,0:0:0:0:
256,192,14808,1,0,0:0:0:0:
329,192,14895,1,0,0:0:0:0:
109,192,14982,1,8,0:0:0:0:
36,192,14982,1,2,0:0:0:0:
402,192,14982,1,8,0:0:0:0:
329,192,15069,1,0,0:0:0:0:
256,192,15157,1,0,0:0:0:0:
182,192,15244,1,0,0:0:0:0:
475,192,15331,1,2,0:0:0:0:
109,192,15331,1,0,0:0:0:0:
182,192,15418,1,0,0:0:0:0:
329,192,15505,1,0,0:0:0:0:
402,192,15593,1,0,0:0:0:0:
109,192,15680,1,2,0:0:0:0:
36,192,15680,1,8,0:0:0:0:
475,192,15680,1,8,0:0:0:0:
402,192,15767,1,0,0:0:0:0:
329,192,15854,1,0,0:0:0:0:
256,192,15941,1,0,0:0:0:0:
36,192,16029,1,2,0:0:0:0:
182,192,16029,1,0,0:0:0:0:
256,192,16116,1,0,0:0:0:0:
329,192,16203,1,0,0:0:0:0:
402,192,16290,1,0,0:0:0:0:
109,192,16378,1,2,0:0:0:0:
36,192,16378,1,8,0:0:0:0:
475,192,16378,1,8,0:0:0:0:
402,192,16465,1,0,0:0:0:0:
329,192,16552,1,0,0:0:0:0:
256,192,16639,1,0,0:0:0:0:
36,192,16726,1,2,0:0:0:0:
182,192,16726,1,0,0:0:0:0:
329,192,16814,1,0,0:0:0:0:
109,192,16901,1,0,0:0:0:0:
256,192,16988,1,0,0:0:0:0:
36,192,17075,1,2,0:0:0:0:
402,192,17075,1,8,0:0:0:0:
475,192,17075,1,8,0:0:0:0:
182,192,17162,1,0,0:0:0:0:
402,192,17250,1,0,0:0:0:0:
256,192,17337,1,0,0:0:0:0:
36,192,17424,1,0,0:0:0:0:
109,192,17424,1,2,0:0:0:0:
329,192,17511,1,0,0:0:0:0:
475,192,17598,1,0,0:0:0:0:
182,192,17686,1,2,0:0:0:0:
109,192,17686,1,0,0:0:0:0:
475,192,17773,1,2,0:0:0:0:
402,192,17773,1,8,0:0:0:0:
329,192,17773,1,8,0:0:0:0:
256,192,17860,1,0,0:0:0:0:
182,192,17947,1,2,0:0:0:0:
109,192,17947,1,0,0:0:0:0:
329,192,18034,1,0,0:0:0:0:
182,192,18122,1,0,0:0:0:0:
36,192,18122,1,0,0:0:0:0:
109,192,18122,1,2,0:0:0:0:
256,192,18209,1,0,0:0:0:0:
329,192,18296,1,0,0:0:0:0:
402,192,18383,1,0,0:0:0:0:
475,192,18471,1,8,0:0:0:0:
36,192,18471,1,8,0:0:0:0:
182,192,18471,1,2,0:0:0:0:
402,192,18558,1,0,0:0:0:0:
329,192,18645,1,0,0:0:0:0:
256,192,18732,1,0,0:0:0:0:
109,192,18819,1,2,0:0:0:0:
36,192,18819,1,0,0:0:0:0:
182,192,18819,1,0,0:0:0:0:
256,192,18907,1,0,0:0:0:0:
329,192,18994,1,0,0:0:0:0:
402,192,19081,1,0,0:0:0:0:
475,192,19168,1,8,0:0:0:0:
36,192,19168,1,8,0:0:0:0:
182,192,19168,1,2,0:0:0:0:
402,192,19255,1,0,0:0:0:0:
329,192,19343,1,0,0:0:0:0:
256,192,19430,1,0,0:0:0:0:
36,192,19517,1,0,0:0:0:0:
109,192,19517,1,2,0:0:0:0:
475,192,19517,1,0,0:0:0:0:
182,192,19604,1,0,0:0:0:0:
256,192,19691,1,0,0:0:0:0:
329,192,19779,1,0,0:0:0:0:
402,192,19866,1,2,0:0:0:0:
475,192,19866,1,8,0:0:0:0:
36,192,19866,1,8,0:0:0:0:
329,192,19953,1,0,0:0:0:0:
256,192,20040,1,0,0:0:0:0:
182,192,20128,1,0,0:0:0:0:
109,192,20215,1,2,0:0:0:0:
36,192,20215,1,0,0:0:0:0:
475,192,20215,1,0,0:0:0:0:
182,192,20302,1,0,0:0:0:0:
256,192,20389,1,0,0:0:0:0:
329,192,20476,1,0,0:0:0:0:
402,192,20564,1,2,0:0:0:0:
475,192,20564,1,8,0:0:0:0:
36,192,20564,1,8,0:0:0:0:
329,192,20651,1,0,0:0:0:0:
256,192,20738,1,0,0:0:0:0:
182,192,20825,1,0,0:0:0:0:
36,192,20912,1,0,0:0:0:0:
329,192,20912,1,2,0:0:0:0:
475,192,20912,1,0,0:0:0:0:
109,192,21000,1,0,0:0:0:0:
182,192,21087,1,0,0:0:0:0:
256,192,21174,1,0,0:0:0:0:
329,192,21261,1,8,0:0:0:0:
402,192,21261,1,2,0:0:0:0:
475,192,21261,1,8,0:0:0:0:
256,192,21348,1,0,0:0:0:0:
182,192,21436,1,0,0:0:0:0:
109,192,21523,1,0,0:0:0:0:
36,192,21610,1,2,0:0:0:0:
329,192,21610,1,0,0:0:0:0:
475,192,21610,1,0,0:0:0:0:
109,192,21697,1,0,0:0:0:0:
182,192,21784,1,0,0:0:0:0:
256,192,21872,1,0,0:0:0:0:
329,192,21959,1,8,0:0:0:0:
475,192,21959,1,8,0:0:0:0:
402,192,21959,1,2,0:0:0:0:
256,192,22046,1,0,0:0:0:0:
182,192,22133,1,0,0:0:0:0:
109,192,22221,1,0,0:0:0:0:
36,192,22308,1,0,0:0:0:30:crashL.wav
475,192,22308,1,0,0:0:0:30:crashR.wav
256,192,22308,1,4,0:0:0:0:
109,192,22395,1,0,0:0:0:0:
329,192,22395,1,0,0:0:0:0:
182,192,22482,1,0,0:0:0:0:
402,192,22482,1,0,0:0:0:0:
256,192,22569,1,0,0:0:0:0:
475,192,22569,1,0,0:0:0:0:
36,192,22657,1,0,0:0:0:0:
329,192,22657,1,0,0:0:0:0:
109,192,22744,1,0,0:0:0:0:
402,192,22744,1,0,0:0:0:0:
182,192,22831,1,0,0:0:0:0:
475,192,22831,1,0,0:0:0:0:
36,192,22918,1,0,0:0:0:0:
402,192,22918,1,0,0:0:0:0:
256,192,23005,1,0,0:0:0:0:
109,192,23005,1,0,0:0:0:0:
329,192,23093,1,0,0:0:0:0:
182,192,23093,1,0,0:0:0:0:
402,192,23180,1,0,0:0:0:0:
256,192,23180,1,0,0:0:0:0:
475,192,23267,1,0,0:0:0:0:
329,192,23267,1,0,0:0:0:0:
109,192,23354,1,0,0:0:0:0:
182,192,23354,1,0,0:0:0:0:
402,192,23441,1,0,0:0:0:0:
475,192,23441,1,0,0:0:0:0:
36,192,23529,1,0,0:0:0:0:
109,192,23529,1,0,0:0:0:0:
329,192,23616,1,0,0:0:0:0:
402,192,23616,1,0,0:0:0:0:
475,192,23703,1,0,0:0:0:0:
256,192,23703,1,0,0:0:0:0:
402,192,23790,1,0,0:0:0:0:
182,192,23790,1,0,0:0:0:0:
329,192,23878,1,0,0:0:0:0:
109,192,23878,1,0,0:0:0:0:
36,192,23965,1,0,0:0:0:0:
256,192,23965,1,0,0:0:0:0:
182,192,24052,1,0,0:0:0:0:
475,192,24052,1,0,0:0:0:0:
402,192,24139,1,0,0:0:0:0:
109,192,24139,1,0,0:0:0:0:
36,192,24226,1,0,0:0:0:0:
329,192,24226,1,0,0:0:0:0:
109,192,24314,1,0,0:0:0:0:
402,192,24314,1,0,0:0:0:0:
256,192,24401,1,0,0:0:0:0:
475,192,24401,1,0,0:0:0:0:
402,192,24488,1,0,0:0:0:0:
182,192,24488,1,0,0:0:0:0:
329,192,24575,1,0,0:0:0:0:
109,192,24575,1,0,0:0:0:0:
256,192,24662,1,0,0:0:0:0:
36,192,24662,1,0,0:0:0:0:
475,192,24750,1,0,0:0:0:0:
402,192,24750,1,0,0:0:0:0:
329,192,24837,1,0,0:0:0:0:
182,192,24837,1,0,0:0:0:0:
109,192,24924,1,0,0:0:0:0:
36,192,24924,1,0,0:0:0:0:
402,192,25011,1,0,0:0:0:0:
475,192,25011,1,0,0:0:0:0:
256,192,25098,1,4,0:0:0:0:
329,192,25098,1,0,0:0:0:0:
182,192,25098,128,0,25796:0:0:0:0:
402,192,25273,128,0,25447:0:0:0:0:
329,192,25622,128,0,25796:0:0:0:0:
36,192,25796,1,4,0:0:0:0:
109,192,25796,128,0,26494:0:0:0:0:
475,192,25971,128,0,26145:0:0:0:0:
182,192,26145,1,0,0:0:0:0:
256,192,26232,1,0,0:0:0:0:
329,192,26319,1,0,0:0:0:0:
402,192,26407,1,0,0:0:0:0:
182,192,26494,1,0,0:0:0:30:crashL.wav
256,192,26494,1,2,0:0:0:0:
329,192,26494,1,0,0:0:0:30:crashR.wav
475,192,26494,128,0,26843:0:0:0:0:
36,192,26494,128,0,26843:0:0:0:0:
109,192,26843,128,0,27017:0:0:0:0:
402,192,26843,128,0,27017:0:0:0:0:
182,192,27017,1,0,0:0:0:50:crashL.wav
256,192,27017,1,2,0:0:0:0:
329,192,27017,1,0,0:0:0:0:
36,192,27017,1,0,0:0:0:0:
475,192,27017,128,0,28587:0:0:0:0:
182,192,27540,1,0,0:0:0:50:crashL.wav
256,192,27540,1,2,0:0:0:0:
329,192,27540,1,0,0:0:0:0:
182,192,28064,1,0,0:0:0:50:crashL.wav
256,192,28064,1,2,0:0:0:0:
329,192,28064,1,0,0:0:0:0:
182,192,28587,1,0,0:0:0:0:
256,192,28587,1,2,0:0:0:0:
329,192,28587,1,0,0:0:0:50:crashR.wav
36,192,28587,128,0,28848:0:0:0:0:
475,192,28848,128,0,29110:0:0:0:0:
329,192,28936,1,0,0:0:0:50:crashR.wav
256,192,28936,1,2,0:0:0:0:
182,192,28936,1,0,0:0:0:0:
402,192,29110,128,0,29284:0:0:0:0:
182,192,29284,1,0,0:0:0:50:crashL.wav
256,192,29284,1,2,0:0:0:0:
329,192,29284,1,0,0:0:0:0:
109,192,29284,128,0,29808:0:0:0:0:
182,192,29808,1,0,0:0:0:50:crashL.wav
256,192,29808,1,2,0:0:0:0:
329,192,29808,1,0,0:0:0:0:
475,192,29808,128,0,30331:0:0:0:0:
182,192,30331,1,0,0:0:0:50:crashL.wav
329,192,30331,1,0,0:0:0:0:
256,192,30331,1,2,0:0:0:0:
36,192,30331,128,0,31378:0:0:0:0:
256,192,30854,1,2,0:0:0:0:
182,192,30854,1,0,0:0:0:50:crashL.wav
329,192,30854,1,0,0:0:0:0:
329,192,31378,1,0,0:0:0:50:crashR.wav
256,192,31378,1,2,0:0:0:0:
182,192,31378,1,0,0:0:0:50:crashL.wav
475,192,31465,1,0,0:0:0:0:
109,192,31465,1,0,0:0:0:0:
36,192,31552,1,0,0:0:0:0:
402,192,31552,1,0,0:0:0:0:
182,192,31639,1,0,0:0:0:50:crashL.wav
256,192,31639,1,2,0:0:0:0:
329,192,31639,1,0,0:0:0:50:crashR.wav
109,192,31726,1,0,0:0:0:0:
475,192,31726,1,0,0:0:0:0:
402,192,31814,1,0,0:0:0:0:
36,192,31814,1,0,0:0:0:0:
182,192,31901,1,0,0:0:0:50:crashL.wav
256,192,31901,1,2,0:0:0:0:
329,192,31901,1,0,0:0:0:50:crashR.wav
109,192,31988,1,0,0:0:0:0:
402,192,31988,1,0,0:0:0:0:
182,192,32075,1,0,0:0:0:50:crashL.wav
256,192,32075,1,2,0:0:0:0:
329,192,32075,1,0,0:0:0:50:crashR.wav
36,192,32075,128,0,33296:0:0:0:0:
475,192,32075,128,0,33296:0:0:0:0:
109,192,32162,1,0,0:0:0:0:
182,192,32250,1,0,0:0:0:0:
256,192,32337,1,0,0:0:0:0:
402,192,32424,1,8,0:0:0:0:
329,192,32424,1,8,0:0:0:0:
109,192,32424,1,2,0:0:0:0:
182,192,32511,1,0,0:0:0:0:
256,192,32598,1,0,0:0:0:0:
329,192,32686,1,0,0:0:0:0:
402,192,32773,1,0,0:0:0:0:
182,192,32773,1,0,0:0:0:0:
109,192,32773,1,2,0:0:0:0:
329,192,32860,1,0,0:0:0:0:
256,192,32947,1,0,0:0:0:0:
182,192,33034,1,0,0:0:0:0:
109,192,33122,1,2,0:0:0:0:
329,192,33122,1,8,0:0:0:0:
402,192,33122,1,8,0:0:0:0:
256,192,33209,1,0,0:0:0:0:
182,192,33296,1,0,0:0:0:0:
329,192,33296,1,0,0:0:0:0:
109,192,33383,1,0,0:0:0:0:
402,192,33383,1,0,0:0:0:0:
256,192,33471,1,0,0:0:0:0:
36,192,33471,1,0,0:0:0:0:
475,192,33471,1,2,0:0:0:0:
182,192,33471,128,0,34691:0:0:0:0:
329,192,33471,128,0,34691:0:0:0:0:
109,192,33558,1,0,0:0:0:0:
256,192,33645,1,0,0:0:0:0:
402,192,33732,1,0,0:0:0:0:
475,192,33819,1,2,0:0:0:0:
36,192,33819,1,8,0:0:0:0:
109,192,33819,1,8,0:0:0:0:
402,192,33907,1,0,0:0:0:0:
256,192,33994,1,0,0:0:0:0:
109,192,34081,1,0,0:0:0:0:
36,192,34168,1,0,0:0:0:0:
402,192,34168,1,0,0:0:0:0:
475,192,34168,1,2,0:0:0:0:
109,192,34255,1,0,0:0:0:0:
256,192,34343,1,0,0:0:0:0:
402,192,34430,1,0,0:0:0:0:
475,192,34517,1,2,0:0:0:0:
109,192,34517,1,8,0:0:0:0:
36,192,34517,1,8,0:0:0:0:
402,192,34604,1,0,0:0:0:0:
256,192,34691,1,0,0:0:0:0:
182,192,34779,1,0,0:0:0:0:
329,192,34779,1,0,0:0:0:0:
36,192,34866,128,0,36087:0:0:0:0:
475,192,34866,128,0,36087:0:0:0:0:
256,192,34866,1,0,0:0:0:0:
109,192,34866,1,2,0:0:0:0:
402,192,34866,1,0,0:0:0:0:
329,192,34953,1,0,0:0:0:0:
182,192,35040,1,0,0:0:0:0:
109,192,35128,1,0,0:0:0:0:
256,192,35215,1,2,0:0:0:0:
182,192,35215,1,8,0:0:0:0:
329,192,35215,1,8,0:0:0:0:
402,192,35302,1,0,0:0:0:0:
109,192,35389,1,0,0:0:0:0:
402,192,35476,1,0,0:0:0:0:
256,192,35564,1,2,0:0:0:0:
182,192,35564,1,0,0:0:0:0:
329,192,35564,1,0,0:0:0:0:
109,192,35651,1,0,0:0:0:0:
402,192,35738,1,0,0:0:0:0:
109,192,35825,1,0,0:0:0:0:
256,192,35912,1,2,0:0:0:0:
182,192,35912,1,8,0:0:0:0:
329,192,35912,1,8,0:0:0:0:
402,192,36000,1,0,0:0:0:0:
109,192,36000,1,0,0:0:0:0:
329,192,36087,1,0,0:0:0:0:
182,192,36087,1,0,0:0:0:0:
109,192,36174,1,0,0:0:0:0:
402,192,36174,1,0,0:0:0:0:
182,192,36261,1,0,0:0:0:0:
256,192,36261,1,0,0:0:0:0:
329,192,36261,1,0,0:0:0:0:
475,192,36261,1,2,0:0:0:0:
36,192,36261,1,2,0:0:0:0:
182,192,36610,128,2,37308:0:0:0:0:
329,192,36610,128,2,38354:0:0:0:0:
36,192,36610,1,4,0:0:0:0:
256,192,36610,1,4,0:0:0:0:
402,192,36610,1,4,0:0:0:0:
475,192,36697,1,0,0:0:0:0:
402,192,36784,1,0,0:0:0:0:
256,192,36872,1,0,0:0:0:0:
109,192,36959,1,0,0:0:0:0:
402,192,37046,1,0,0:0:0:0:
256,192,37133,1,0,0:0:0:0:
109,192,37221,1,0,0:0:0:0:
36,192,37308,128,0,38354:0:0:0:0:
475,192,37308,1,0,0:0:0:0:
402,192,37395,1,0,0:0:0:0:
256,192,37482,1,0,0:0:0:0:
182,192,37569,1,0,0:0:0:0:
109,192,37657,1,0,0:0:0:0:
475,192,37657,1,0,0:0:0:0:
402,192,37744,1,0,0:0:0:0:
256,192,37831,1,0,0:0:0:0:
182,192,37918,1,0,0:0:0:0:
475,192,37918,1,0,0:0:0:0:
402,192,38005,1,0,0:0:0:0:
109,192,38005,1,0,0:0:0:0:
182,192,38093,1,0,0:0:0:0:
256,192,38180,1,0,0:0:0:0:
402,192,38180,1,0,0:0:0:0:
182,192,38267,1,0,0:0:0:0:
475,192,38267,1,0,0:0:0:0:
109,192,38354,1,0,0:0:0:0:
402,192,38354,1,0,0:0:0:0:
182,192,38441,1,0,0:0:0:0:
475,192,38441,1,0,0:0:0:0:
402,192,38529,1,0,0:0:0:0:
109,192,38529,1,0,0:0:0:0:
329,192,38616,1,0,0:0:0:0:
36,192,38616,1,0,0:0:0:0:
109,192,38703,1,0,0:0:0:0:
256,192,38703,1,0,0:0:0:0:
402,192,38703,1,0,0:0:0:0:
475,192,38790,1,0,0:0:0:0:
329,192,38790,1,0,0:0:0:0:
256,192,38878,1,0,0:0:0:0:
109,192,38878,1,0,0:0:0:0:
36,192,38965,1,0,0:0:0:0:
182,192,38965,1,0,0:0:0:0:
256,192,39052,1,0,0:0:0:0:
109,192,39052,1,0,0:0:0:50:crashL.wav
402,192,39052,1,0,0:0:0:50:crashR.wav
256,192,39226,1,0,0:0:0:0:
109,192,39401,1,8,0:0:0:0:
402,192,39401,1,8,0:0:0:0:
256,192,39401,1,0,0:0:0:0:
182,192,39575,1,0,0:0:0:0:
329,192,39575,1,0,0:0:0:0:
182,192,39924,1,0,0:0:0:0:
329,192,39924,1,0,0:0:0:0:
109,192,40098,1,8,0:0:0:0:
402,192,40098,1,8,0:0:0:0:
256,192,40098,1,0,0:0:0:0:
36,192,40447,128,0,41843:0:0:0:0:
182,192,40447,1,0,0:0:0:0:
329,192,40447,1,0,0:0:0:0:
402,192,40622,1,0,0:0:0:0:
475,192,40796,1,8,0:0:0:0:
109,192,40796,1,8,0:0:0:0:
256,192,40796,1,0,0:0:0:0:
182,192,40971,1,0,0:0:0:0:
402,192,40971,1,0,0:0:0:0:
182,192,41319,1,0,0:0:0:0:
402,192,41319,1,0,0:0:0:0:
475,192,41494,1,8,0:0:0:0:
109,192,41494,1,8,0:0:0:0:
256,192,41494,1,0,0:0:0:0:
402,192,41668,1,0,0:0:0:0:
182,192,41668,1,0,0:0:0:0:
256,192,41843,128,0,43238:0:0:0:0:
329,192,41843,1,0,0:0:0:0:
475,192,41843,1,0,0:0:0:0:
109,192,42017,1,0,0:0:0:0:
36,192,42191,1,8,0:0:0:0:
182,192,42191,1,0,0:0:0:0:
402,192,42191,1,8,0:0:0:0:
329,192,42366,1,0,0:0:0:0:
475,192,42366,1,0,0:0:0:0:
329,192,42715,1,0,0:0:0:0:
475,192,42715,1,0,0:0:0:0:
182,192,42889,1,0,0:0:0:0:
36,192,42889,1,8,0:0:0:0:
402,192,42889,1,8,0:0:0:0:
109,192,43064,1,0,0:0:0:0:
402,192,43064,1,0,0:0:0:0:
475,192,43238,128,0,44633:0:0:0:0:
182,192,43238,1,0,0:0:0:0:
329,192,43238,1,0,0:0:0:0:
109,192,43412,1,0,0:0:0:0:
36,192,43587,1,8,0:0:0:0:
402,192,43587,1,8,0:0:0:0:
256,192,43587,1,0,0:0:0:0:
109,192,43761,1,0,0:0:0:0:
329,192,43761,1,0,0:0:0:0:
109,192,44110,1,0,0:0:0:0:
329,192,44110,1,0,0:0:0:0:
402,192,44284,1,8,0:0:0:0:
36,192,44284,1,8,0:0:0:0:
182,192,44284,1,0,0:0:0:0:
329,192,44459,1,0,0:0:0:0:
109,192,44459,1,0,0:0:0:0:
36,192,44633,128,0,45331:0:0:0:0:
182,192,44633,1,0,0:0:0:0:
329,192,44633,1,0,0:0:0:0:
402,192,44808,1,0,0:0:0:0:
475,192,44982,1,8,0:0:0:0:
256,192,44982,1,8,0:0:0:0:
329,192,45157,1,0,0:0:0:0:
182,192,45331,1,0,0:0:0:0:
402,192,45331,128,0,45593:0:0:0:0:
256,192,45505,1,0,0:0:0:0:
475,192,45593,128,0,45854:0:0:0:0:
329,192,45680,1,8,0:0:0:0:
109,192,45680,1,8,0:0:0:0:
402,192,45854,128,0,46029:0:0:0:0:
256,192,45854,1,0,0:0:0:0:
329,192,46029,128,0,46552:0:0:0:0:
36,192,46029,1,0,0:0:0:0:
182,192,46029,1,0,0:0:0:0:
256,192,46116,1,0,0:0:0:0:
36,192,46203,1,0,0:0:0:0:
109,192,46290,1,0,0:0:0:0:
182,192,46378,1,8,0:0:0:0:
475,192,46378,1,8,0:0:0:0:
109,192,46465,1,0,0:0:0:0:
256,192,46552,1,0,0:0:0:0:
36,192,46552,1,0,0:0:0:0:
182,192,46639,1,0,0:0:0:0:
402,192,46639,1,0,0:0:0:0:
109,192,46726,128,0,47424:0:0:0:0:
329,192,46726,1,0,0:0:0:0:
256,192,46814,1,0,0:0:0:0:
182,192,46901,1,0,0:0:0:0:
256,192,46988,1,0,0:0:0:0:
329,192,47075,1,8,0:0:0:0:
475,192,47075,1,8,0:0:0:0:
182,192,47162,128,0,47250:0:0:0:0:
256,192,47250,128,0,47337:0:0:0:0:
329,192,47337,128,0,47424:0:0:0:0:
475,192,47424,1,0,0:0:0:45:crashR.wav
36,192,47424,1,0,0:0:0:45:crashL.wav
402,192,47424,128,0,47773:0:0:0:0:
109,192,47598,1,0,0:0:0:0:
256,192,47860,128,0,47947:0:0:0:0:
329,192,47947,128,0,48034:0:0:0:0:
109,192,47947,1,0,0:0:0:0:
402,192,48034,128,0,48122:0:0:0:0:
475,192,48122,128,0,48296:0:0:0:0:
402,192,48296,128,0,48471:0:0:0:0:
109,192,48296,1,0,0:0:0:0:
329,192,48471,128,0,48645:0:0:0:0:
475,192,48645,128,0,48819:0:0:0:0:
109,192,48645,1,0,0:0:0:0:
402,192,48819,128,0,49081:0:0:0:0:
256,192,48819,1,0,0:0:0:0:
182,192,48994,1,0,0:0:0:0:
329,192,49081,1,0,0:0:0:0:
329,192,49343,128,0,49866:0:0:0:0:
182,192,49343,1,0,0:0:0:0:
182,192,49691,1,0,0:0:0:0:
329,192,50040,128,0,50128:0:0:0:0:
182,192,50040,1,0,0:0:0:0:
402,192,50128,128,0,50215:0:0:0:0:
475,192,50215,128,0,50564:0:0:0:0:
256,192,50215,1,0,0:0:0:0:
36,192,50389,1,0,0:0:0:0:
329,192,50738,128,0,50825:0:0:0:0:
36,192,50738,1,0,0:0:0:0:
402,192,50825,128,0,50912:0:0:0:0:
475,192,50912,128,0,51087:0:0:0:0:
402,192,51087,128,0,51261:0:0:0:0:
36,192,51087,1,0,0:0:0:0:
329,192,51261,128,0,51436:0:0:0:0:
182,192,51436,128,0,51610:0:0:0:0:
36,192,51436,1,0,0:0:0:0:
329,192,51610,128,0,51697:0:0:0:0:
109,192,51610,1,0,0:0:0:0:
475,192,51697,128,0,51784:0:0:0:0:
329,192,51784,128,0,52308:0:0:0:0:
256,192,51784,1,0,0:0:0:0:
256,192,52133,1,0,0:0:0:0:
36,192,52482,128,0,52657:0:0:0:0:
256,192,52482,1,0,0:0:0:0:
109,192,52657,128,0,52831:0:0:0:0:
182,192,52831,128,0,53005:0:0:0:0:
256,192,52831,1,0,0:0:0:0:
36,192,53005,128,0,53267:0:0:0:0:
329,192,53005,1,0,0:0:0:0:
402,192,53180,1,0,0:0:0:0:
182,192,53267,1,0,0:0:0:0:
182,192,53529,128,0,54052:0:0:0:0:
402,192,53529,1,0,0:0:0:0:
402,192,53878,1,0,0:0:0:0:
36,192,54052,128,0,54226:0:0:0:0:
182,192,54226,128,0,54401:0:0:0:0:
402,192,54226,1,0,0:0:0:0:
109,192,54401,128,0,54575:0:0:0:0:
329,192,54401,1,0,0:0:0:0:
36,192,54575,128,0,54750:0:0:0:0:
475,192,54575,1,0,0:0:0:0:
109,192,54750,128,0,54924:0:0:0:0:
182,192,54924,128,0,55447:0:0:0:0:
475,192,54924,1,0,0:0:0:0:
475,192,55273,1,0,0:0:0:0:
36,192,55622,128,0,55709:0:0:0:0:
475,192,55622,1,0,0:0:0:0:
109,192,55709,128,0,55796:0:0:0:0:
182,192,55796,128,0,56319:0:0:0:0:
256,192,55796,1,4,0:0:0:0:
329,192,55971,1,0,0:0:0:0:
36,192,56319,128,0,56494:0:0:0:0:
329,192,56319,1,0,0:0:0:0:
329,192,56494,128,0,56755:0:0:0:0:
182,192,56668,1,0,0:0:0:0:
475,192,56755,128,0,57017:0:0:0:0:
329,192,57017,1,0,0:0:0:0:
182,192,57017,1,0,0:0:0:0:
329,192,57191,128,0,57279:0:0:0:0:
182,192,57191,1,0,0:0:0:0:
256,192,57366,1,0,0:0:0:0:
109,192,57540,128,4,58238:0:0:0:0:
402,192,57540,128,4,58238:0:0:0:0:
256,192,57715,1,0,0:0:0:0:
256,192,58064,1,0,0:0:0:0:
182,192,58325,1,0,0:0:0:0:
256,192,58412,1,0,0:0:0:0:
329,192,58500,1,0,0:0:0:0:
402,192,58587,1,0,0:0:0:45:crashR.wav
109,192,58587,1,0,0:0:0:45:crashL.wav
256,192,58587,1,0,0:0:0:0:
182,192,58761,1,0,0:0:0:0:
109,192,58936,1,8,0:0:0:0:
256,192,59023,1,0,0:0:0:0:
329,192,59110,1,0,0:0:0:0:
182,192,59110,1,0,0:0:0:0:
402,192,59197,1,0,0:0:0:0:
475,192,59284,1,0,0:0:0:0:
109,192,59284,1,0,0:0:0:0:
182,192,59459,1,0,0:0:0:0:
402,192,59459,1,0,0:0:0:0:
109,192,59633,1,8,0:0:0:0:
329,192,59633,1,0,0:0:0:0:
182,192,59808,1,0,0:0:0:0:
475,192,59808,1,0,0:0:0:0:
36,192,59982,1,0,0:0:0:0:
402,192,59982,1,0,0:0:0:0:
182,192,60157,1,0,0:0:0:0:
329,192,60244,1,0,0:0:0:0:
36,192,60331,1,8,0:0:0:0:
182,192,60505,1,0,0:0:0:0:
256,192,60505,1,0,0:0:0:0:
36,192,60680,1,0,0:0:0:0:
182,192,60854,1,0,0:0:0:0:
36,192,61029,1,8,0:0:0:0:
329,192,61029,1,0,0:0:0:0:
182,192,61203,1,0,0:0:0:0:
402,192,61203,1,0,0:0:0:0:
256,192,61378,1,0,0:0:0:0:
475,192,61378,1,0,0:0:0:0:
36,192,61378,1,0,0:0:0:45:crashL.wav
109,192,61552,1,0,0:0:0:0:
475,192,61639,1,0,0:0:0:0:
36,192,61726,1,8,0:0:0:0:
109,192,61901,1,0,0:0:0:0:
402,192,61901,1,0,0:0:0:0:
329,192,62075,1,0,0:0:0:0:
475,192,62075,1,0,0:0:0:45:crashR.wav
36,192,62075,1,0,0:0:0:0:
182,192,62250,1,0,0:0:0:0:
402,192,62337,1,0,0:0:0:0:
36,192,62424,1,8,0:0:0:0:
182,192,62598,1,0,0:0:0:0:
329,192,62598,1,0,0:0:0:0:
256,192,62773,1,0,0:0:0:0:
475,192,62773,1,0,0:0:0:0:
109,192,62773,1,0,0:0:0:45:crashL.wav
329,192,62860,1,0,0:0:0:0:
402,192,62947,1,0,0:0:0:0:
182,192,63122,1,8,0:0:0:0:
402,192,63296,1,0,0:0:0:0:
182,192,63471,1,0,0:0:0:45:crashR.wav
36,192,63471,1,0,0:0:0:45:crashL.wav
402,192,63645,1,0,0:0:0:0:
182,192,63819,1,8,0:0:0:0:
475,192,63819,1,0,0:0:0:0:
329,192,63994,1,0,0:0:0:0:
256,192,64168,1,0,0:0:0:0:
36,192,64168,1,4,0:0:0:0:
475,192,64168,1,4,0:0:0:0:
329,192,64343,1,0,0:0:0:0:
182,192,64517,1,8,0:0:0:0:
329,192,64691,1,0,0:0:0:0:
109,192,64691,1,0,0:0:0:0:
182,192,64866,1,0,0:0:0:0:
475,192,64866,1,0,0:0:0:0:
329,192,65040,1,0,0:0:0:0:
36,192,65040,1,0,0:0:0:0:
182,192,65215,1,8,0:0:0:0:
402,192,65215,1,0,0:0:0:0:
329,192,65389,1,0,0:0:0:0:
109,192,65389,1,0,0:0:0:0:
182,192,65564,1,0,0:0:0:0:
475,192,65564,1,0,0:0:0:0:
402,192,65738,1,0,0:0:0:0:
329,192,65825,1,0,0:0:0:0:
109,192,65912,1,8,0:0:0:0:
402,192,66087,1,0,0:0:0:0:
256,192,66087,1,0,0:0:0:0:
109,192,66261,1,0,0:0:0:0:
402,192,66436,1,0,0:0:0:0:
109,192,66610,1,8,0:0:0:0:
402,192,66784,1,0,0:0:0:0:
182,192,66784,1,0,0:0:0:0:
256,192,66872,1,0,0:0:0:0:
329,192,66959,1,0,0:0:0:50:crashL.wav
475,192,66959,1,0,0:0:0:50:crashR.wav
36,192,66959,128,0,67569:0:0:0:0:
109,192,66959,128,2,67569:0:0:0:0:
402,192,67221,1,0,0:0:0:0:
256,192,67221,1,0,0:0:0:0:
329,192,67482,1,0,0:0:0:0:
402,192,67482,1,0,0:0:0:0:
36,192,67657,128,0,68354:0:0:0:0:
182,192,67657,128,0,68005:0:0:0:0:
475,192,67657,1,2,0:0:0:0:
256,192,67657,1,0,0:0:0:50:crashL.wav
329,192,67918,1,0,0:0:0:0:
402,192,67918,1,0,0:0:0:0:
256,192,68005,128,0,68354:0:0:0:0:
109,192,68180,1,0,0:0:0:0:
329,192,68180,1,0,0:0:0:0:
182,192,68354,1,2,0:0:0:0:
475,192,68354,1,0,0:0:0:0:
402,192,68354,1,0,0:0:0:50:crashR.wav
36,192,68529,1,2,0:0:0:0:
475,192,68616,1,2,0:0:0:0:
36,192,68703,1,0,0:0:0:0:
256,192,68703,1,0,0:0:0:50:crashL.wav
109,192,68747,1,0,0:0:0:0:
329,192,68747,1,0,0:0:0:0:
182,192,68790,1,0,0:0:0:0:
402,192,68790,1,0,0:0:0:0:
256,192,68834,1,0,0:0:0:0:
475,192,68834,1,0,0:0:0:0:
36,192,68878,1,2,0:0:0:0:
109,192,68878,1,0,0:0:0:0:
329,192,68936,1,2,0:0:0:0:
402,192,68936,1,0,0:0:0:0:
109,192,68994,1,2,0:0:0:0:
36,192,68994,1,0,0:0:0:0:
182,192,69052,1,2,0:0:0:0:
256,192,69052,1,8,0:0:0:0:
475,192,69052,1,0,0:0:0:0:
182,192,69226,1,2,0:0:0:0:
475,192,69226,1,0,0:0:0:0:
329,192,69226,1,8,0:0:0:0:
36,192,69401,1,0,0:0:0:0:
182,192,69401,1,2,0:0:0:0:
109,192,69401,1,8,0:0:0:0:
329,192,69488,1,2,0:0:0:0:
475,192,69488,1,8,0:0:0:0:
36,192,69575,1,8,0:0:0:0:
182,192,69575,1,2,0:0:0:0:
329,192,69662,1,2,0:0:0:0:
475,192,69662,1,8,0:0:0:0:
36,192,69750,1,0,0:0:0:50:crashL.wav
402,192,69750,1,0,0:0:0:50:crashR.wav
182,192,69750,1,2,0:0:0:0:
109,192,69750,1,0,0:0:0:0:
256,192,69837,1,0,0:0:0:0:
329,192,69924,1,0,0:0:0:0:
402,192,70011,1,0,0:0:0:0:
36,192,70098,1,8,0:0:0:0:
475,192,70098,1,8,0:0:0:0:
256,192,70098,1,2,0:0:0:0:
109,192,70186,1,0,0:0:0:0:
329,192,70186,1,0,0:0:0:0:
182,192,70273,1,0,0:0:0:0:
402,192,70273,1,0,0:0:0:0:
256,192,70360,1,0,0:0:0:0:
475,192,70360,1,0,0:0:0:0:
329,192,70447,1,2,0:0:0:0:
36,192,70447,1,0,0:0:0:0:
109,192,70447,1,0,0:0:0:0:
256,192,70534,1,0,0:0:0:0:
182,192,70622,1,0,0:0:0:0:
402,192,70622,1,0,0:0:0:0:
109,192,70709,1,0,0:0:0:0:
402,192,70796,1,2,0:0:0:0:
36,192,70796,1,8,0:0:0:0:
475,192,70796,1,8,0:0:0:0:
329,192,70883,1,0,0:0:0:0:
256,192,70971,1,0,0:0:0:0:
475,192,70971,1,0,0:0:0:0:
182,192,71058,1,0,0:0:0:0:
36,192,71145,1,0,0:0:0:0:
109,192,71145,1,2,0:0:0:0:
402,192,71145,1,0,0:0:0:0:
182,192,71232,1,0,0:0:0:0:
256,192,71319,1,0,0:0:0:0:
329,192,71407,1,0,0:0:0:0:
402,192,71407,1,0,0:0:0:0:
36,192,71494,1,8,0:0:0:0:
109,192,71494,1,2,0:0:0:0:
475,192,71494,1,8,0:0:0:0:
182,192,71581,1,0,0:0:0:0:
256,192,71668,1,0,0:0:0:0:
402,192,71668,1,0,0:0:0:0:
329,192,71755,1,0,0:0:0:0:
475,192,71843,1,2,0:0:0:0:
36,192,71843,1,0,0:0:0:0:
109,192,71843,1,0,0:0:0:0:
402,192,71930,1,0,0:0:0:0:
329,192,72017,1,0,0:0:0:0:
182,192,72104,1,0,0:0:0:0:
109,192,72191,1,2,0:0:0:0:
36,192,72191,1,8,0:0:0:0:
475,192,72191,1,8,0:0:0:0:
256,192,72279,1,0,0:0:0:0:
329,192,72366,1,0,0:0:0:0:
182,192,72366,1,0,0:0:0:0:
402,192,72453,1,0,0:0:0:0:
109,192,72453,1,0,0:0:0:0:
36,192,72540,1,0,0:0:0:0:
256,192,72540,1,2,0:0:0:0:
475,192,72540,1,0,0:0:0:0:
109,192,72628,1,0,0:0:0:0:
182,192,72715,1,0,0:0:0:0:
256,192,72802,1,0,0:0:0:0:
329,192,72889,1,2,0:0:0:0:
402,192,72889,1,8,0:0:0:0:
475,192,72889,1,8,0:0:0:0:
109,192,72976,1,0,0:0:0:0:
182,192,73064,1,0,0:0:0:0:
329,192,73064,1,0,0:0:0:0:
256,192,73151,1,0,0:0:0:0:
402,192,73151,1,0,0:0:0:0:
475,192,73238,1,0,0:0:0:0:
329,192,73238,1,0,0:0:0:0:
36,192,73238,1,2,0:0:0:0:
109,192,73325,1,0,0:0:0:0:
182,192,73412,1,0,0:0:0:0:
402,192,73412,1,0,0:0:0:0:
109,192,73500,1,0,0:0:0:0:
36,192,73587,1,8,0:0:0:0:
329,192,73587,1,2,0:0:0:0:
475,192,73587,1,8,0:0:0:0:
109,192,73674,1,0,0:0:0:0:
182,192,73761,1,0,0:0:0:0:
402,192,73761,1,0,0:0:0:0:
256,192,73848,1,0,0:0:0:0:
329,192,73936,1,0,0:0:0:0:
36,192,73936,1,0,0:0:0:0:
475,192,73936,1,2,0:0:0:0:
182,192,74023,1,0,0:0:0:0:
256,192,74110,1,0,0:0:0:0:
329,192,74197,1,0,0:0:0:0:
402,192,74284,1,2,0:0:0:0:
475,192,74284,1,8,0:0:0:0:
36,192,74284,1,8,0:0:0:0:
109,192,74372,1,0,0:0:0:0:
182,192,74459,1,0,0:0:0:0:
256,192,74546,1,0,0:0:0:0:
329,192,74633,1,0,0:0:0:0:
475,192,74633,1,2,0:0:0:0:
36,192,74633,1,0,0:0:0:0:
402,192,74721,1,0,0:0:0:0:
329,192,74808,1,0,0:0:0:0:
109,192,74808,1,0,0:0:0:0:
256,192,74895,1,0,0:0:0:0:
109,192,74982,1,8,0:0:0:0:
182,192,74982,1,2,0:0:0:0:
36,192,74982,1,8,0:0:0:0:
475,192,75069,1,0,0:0:0:0:
402,192,75157,1,0,0:0:0:0:
182,192,75157,1,0,0:0:0:0:
256,192,75244,1,0,0:0:0:0:
475,192,75331,1,0,0:0:0:0:
36,192,75331,1,0,0:0:0:0:
329,192,75331,1,2,0:0:0:0:
402,192,75331,1,0,0:0:0:50:crashR.wav
109,192,75418,1,0,0:0:0:0:
182,192,75505,1,0,0:0:0:0:
402,192,75593,1,0,0:0:0:50:crashR.wav
329,192,75593,1,2,0:0:0:0:
256,192,75593,1,0,0:0:0:0:
475,192,75593,1,0,0:0:0:0:
36,192,75680,1,8,0:0:0:0:
109,192,75767,1,0,0:0:0:0:
402,192,75854,1,0,0:0:0:0:
182,192,75854,1,0,0:0:0:50:crashL.wav
256,192,75854,1,2,0:0:0:0:
329,192,75854,1,0,0:0:0:50:crashR.wav
36,192,75941,1,0,0:0:0:0:
475,192,76029,1,0,0:0:0:0:
402,192,76116,1,0,0:0:0:0:
329,192,76203,1,0,0:0:0:0:
256,192,76290,1,0,0:0:0:0:
36,192,76378,1,8,0:0:0:0:
475,192,76378,1,8,0:0:0:0:
329,192,76378,1,2,0:0:0:0:
109,192,76465,1,0,0:0:0:0:
182,192,76552,1,0,0:0:0:0:
402,192,76552,1,0,0:0:0:0:
256,192,76639,1,0,0:0:0:0:
329,192,76726,1,0,0:0:0:0:
402,192,76726,1,2,0:0:0:0:
475,192,76726,1,0,0:0:0:0:
36,192,76726,1,0,0:0:0:50:crashL.wav
109,192,76814,1,0,0:0:0:0:
182,192,76901,1,0,0:0:0:0:
329,192,76901,1,0,0:0:0:0:
475,192,76988,1,0,0:0:0:0:
402,192,76988,1,0,0:0:0:0:
36,192,76988,1,0,0:0:0:0:
109,192,76988,1,2,0:0:0:0:
182,192,77075,1,8,0:0:0:0:
329,192,77075,1,8,0:0:0:0:
256,192,77162,1,0,0:0:0:0:
475,192,77250,1,0,0:0:0:50:crashR.wav
402,192,77250,1,2,0:0:0:0:
109,192,77250,1,0,0:0:0:0:
36,192,77250,1,0,0:0:0:0:
182,192,77337,1,0,0:0:0:0:
256,192,77424,1,2,0:0:0:0:
475,192,77424,1,0,0:0:0:0:
36,192,77424,1,0,0:0:0:0:
402,192,77511,1,0,0:0:0:0:
329,192,77598,1,0,0:0:0:0:
36,192,77598,1,0,0:0:0:0:
109,192,77598,1,2,0:0:0:0:
182,192,77657,1,2,0:0:0:0:
256,192,77715,1,2,0:0:0:0:
402,192,77773,1,8,0:0:0:0:
329,192,77773,1,8,0:0:0:0:
109,192,77773,1,2,0:0:0:0:
182,192,77831,1,2,0:0:0:0:
256,192,77889,1,2,0:0:0:0:
329,192,77947,1,0,0:0:0:0:
36,192,77947,1,0,0:0:0:0:
109,192,77947,1,2,0:0:0:0:
182,192,78034,1,2,0:0:0:0:
402,192,78034,1,0,0:0:0:0:
475,192,78034,1,0,0:0:0:0:
256,192,78122,1,2,0:0:0:0:
329,192,78122,1,4,0:0:0:0:
36,192,78122,1,0,0:0:0:50:crashL.wav
109,192,78209,1,0,0:0:0:0:
182,192,78296,1,0,0:0:0:0:
256,192,78383,1,0,0:0:0:0:
475,192,78471,1,8,0:0:0:0:
109,192,78471,1,8,0:0:0:0:
402,192,78558,1,0,0:0:0:0:
329,192,78645,1,0,0:0:0:0:
36,192,78645,1,0,0:0:0:0:
182,192,78645,1,2,0:0:0:0:
256,192,78732,1,0,0:0:0:0:
475,192,78819,1,0,0:0:0:0:
109,192,78819,1,0,0:0:0:0:
182,192,78907,1,0,0:0:0:0:
256,192,78994,1,2,0:0:0:0:
402,192,78994,1,0,0:0:0:0:
475,192,78994,1,0,0:0:0:0:
36,192,79081,1,0,0:0:0:0:
109,192,79081,1,0,0:0:0:0:
329,192,79081,1,2,0:0:0:0:
182,192,79168,1,8,0:0:0:0:
256,192,79255,1,0,0:0:0:0:
329,192,79343,1,2,0:0:0:0:
402,192,79343,1,0,0:0:0:0:
475,192,79343,1,0,0:0:0:0:
109,192,79430,1,0,0:0:0:0:
329,192,79517,1,0,0:0:0:0:
36,192,79517,128,0,79866:0:0:0:0:
256,192,79604,1,0,0:0:0:0:
329,192,79691,1,0,0:0:0:0:
402,192,79779,1,0,0:0:0:0:
475,192,79866,128,0,80825:0:0:0:0:
182,192,79866,1,8,0:0:0:0:
109,192,79866,1,4,0:0:0:0:
256,192,79866,1,2,0:0:0:0:
402,192,79953,1,0,0:0:0:0:
329,192,80040,1,0,0:0:0:0:
256,192,80128,1,0,0:0:0:0:
182,192,80215,1,0,0:0:0:0:
402,192,80302,1,0,0:0:0:0:
329,192,80389,1,2,0:0:0:0:
36,192,80389,1,0,0:0:0:0:
256,192,80476,1,2,0:0:0:0:
109,192,80476,1,0,0:0:0:0:
182,192,80564,1,8,0:0:0:0:
256,192,80651,1,0,0:0:0:0:
402,192,80651,1,0,0:0:0:0:
109,192,80738,1,2,0:0:0:0:
329,192,80738,1,0,0:0:0:0:
36,192,80738,1,0,0:0:0:0:
402,192,80825,1,0,0:0:0:0:
182,192,80825,1,0,0:0:0:0:
256,192,80912,1,2,0:0:0:0:
475,192,80912,1,0,0:0:0:50:crashR.wav
36,192,80912,1,0,0:0:0:50:crashL.wav
329,192,80912,1,0,0:0:0:0:
182,192,81087,1,0,0:0:0:0:
36,192,81261,1,8,0:0:0:0:
475,192,81261,1,8,0:0:0:0:
329,192,81261,1,2,0:0:0:0:
256,192,81348,1,0,0:0:0:0:
109,192,81348,1,0,0:0:0:0:
329,192,81436,1,0,0:0:0:0:
182,192,81436,1,0,0:0:0:0:
402,192,81523,1,0,0:0:0:0:
109,192,81523,1,0,0:0:0:0:
36,192,81610,1,0,0:0:0:0:
256,192,81610,1,2,0:0:0:0:
475,192,81610,1,0,0:0:0:0:
402,192,81784,1,0,0:0:0:0:
182,192,81784,1,0,0:0:0:0:
109,192,81872,1,0,0:0:0:0:
36,192,81959,1,8,0:0:0:0:
256,192,81959,1,2,0:0:0:0:
329,192,81959,1,8,0:0:0:0:
109,192,82046,1,0,0:0:0:0:
475,192,82133,1,0,0:0:0:0:
182,192,82133,1,0,0:0:0:0:
109,192,82221,1,0,0:0:0:0:
402,192,82221,1,0,0:0:0:0:
329,192,82308,1,0,0:0:0:0:
475,192,82308,1,0,0:0:0:0:
256,192,82308,1,2,0:0:0:0:
36,192,82308,1,0,0:0:0:0:
109,192,82569,1,0,0:0:0:0:
402,192,82569,1,0,0:0:0:0:
182,192,82657,1,8,0:0:0:0:
329,192,82657,1,8,0:0:0:0:
256,192,82657,1,2,0:0:0:0:
475,192,82744,1,0,0:0:0:0:
36,192,82831,1,0,0:0:0:0:
109,192,82831,1,0,0:0:0:0:
182,192,82918,1,0,0:0:0:0:
475,192,83005,1,0,0:0:0:0:
402,192,83005,1,0,0:0:0:0:
256,192,83005,1,2,0:0:0:0:
329,192,83093,1,0,0:0:0:0:
182,192,83180,1,0,0:0:0:0:
329,192,83267,1,2,0:0:0:0:
475,192,83267,1,0,0:0:0:0:
109,192,83267,1,0,0:0:0:0:
329,192,83354,1,2,0:0:0:0:
475,192,83354,1,8,0:0:0:0:
36,192,83354,1,8,0:0:0:0:
182,192,83441,1,0,0:0:0:0:
109,192,83529,1,2,0:0:0:0:
402,192,83529,1,0,0:0:0:0:
109,192,83616,1,2,0:0:0:0:
402,192,83616,1,0,0:0:0:0:
182,192,83703,1,0,0:0:0:50:crashL.wav
329,192,83703,1,0,0:0:0:0:
256,192,83703,1,2,0:0:0:0:
36,192,83703,128,0,84314:0:0:0:0:
475,192,83703,128,0,84314:0:0:0:0:
256,192,83965,1,0,0:0:0:0:
402,192,83965,1,0,0:0:0:0:
182,192,84226,1,0,0:0:0:0:
329,192,84226,1,0,0:0:0:0:
109,192,84401,1,0,0:0:0:50:crashL.wav
256,192,84401,1,2,0:0:0:0:
402,192,84401,1,0,0:0:0:0:
36,192,84401,128,0,85011:0:0:0:0:
475,192,84401,128,0,85011:0:0:0:0:
182,192,84662,1,0,0:0:0:0:
402,192,84662,1,0,0:0:0:0:
109,192,84924,1,0,0:0:0:0:
329,192,84924,1,0,0:0:0:0:
36,192,85098,1,0,0:0:0:50:crashL.wav
402,192,85098,1,0,0:0:0:0:
182,192,85098,1,2,0:0:0:0:
256,192,85098,128,0,85709:0:0:0:0:
475,192,85098,128,0,85709:0:0:0:0:
182,192,85622,1,0,0:0:0:0:
109,192,85709,1,0,0:0:0:0:
36,192,85796,1,0,0:0:0:0:
256,192,85796,1,2,0:0:0:0:
329,192,85796,1,4,0:0:0:0:
402,192,85796,1,4,0:0:0:0:
475,192,85796,1,0,0:0:0:0:
36,192,85971,1,2,0:0:0:0:
109,192,86029,1,2,0:0:0:0:
182,192,86087,1,2,0:0:0:0:
329,192,86145,1,8,0:0:0:0:
475,192,86145,1,8,0:0:0:0:
256,192,86145,1,2,0:0:0:0:
36,192,86232,1,0,0:0:0:0:
182,192,86232,1,2,0:0:0:0:
329,192,86319,1,2,0:0:0:0:
475,192,86319,1,0,0:0:0:0:
182,192,86407,1,2,0:0:0:0:
36,192,86407,1,0,0:0:0:0:
329,192,86494,1,2,0:0:0:0:
402,192,86494,1,4,0:0:0:0:
475,192,86494,1,4,0:0:0:0:
256,192,86494,1,0,0:0:0:0:
36,192,86668,1,0,0:0:0:0:
329,192,86843,1,2,0:0:0:0:
109,192,86843,1,8,0:0:0:0:
475,192,86843,1,8,0:0:0:0:
182,192,87017,1,0,0:0:0:0:
402,192,87017,1,0,0:0:0:0:
256,192,87191,1,0,0:0:0:0:
475,192,87191,1,0,0:0:0:0:
36,192,87191,1,2,0:0:0:0:
182,192,87366,1,0,0:0:0:0:
402,192,87366,1,0,0:0:0:0:
329,192,87540,1,2,0:0:0:0:
475,192,87540,1,8,0:0:0:0:
109,192,87540,1,8,0:0:0:0:
256,192,87715,1,0,0:0:0:0:
36,192,87715,1,0,0:0:0:0:
109,192,87889,1,2,0:0:0:0:
475,192,87889,1,0,0:0:0:0:
329,192,87889,1,0,0:0:0:0:
182,192,87889,1,0,0:0:0:0:
182,192,88151,1,0,0:0:0:0:
36,192,88151,1,0,0:0:0:0:
402,192,88238,1,2,0:0:0:0:
475,192,88238,1,8,0:0:0:0:
256,192,88238,1,8,0:0:0:0:
329,192,88412,1,0,0:0:0:0:
182,192,88412,1,0,0:0:0:0:
256,192,88587,1,2,0:0:0:0:
109,192,88587,1,0,0:0:0:0:
402,192,88587,1,0,0:0:0:0:
36,192,88761,1,0,0:0:0:0:
182,192,88761,1,2,0:0:0:0:
329,192,88848,1,2,0:0:0:0:
475,192,88848,1,0,0:0:0:0:
36,192,88936,1,8,0:0:0:0:
182,192,88936,1,2,0:0:0:0:
256,192,88936,1,8,0:0:0:0:
329,192,89023,1,2,0:0:0:0:
475,192,89023,1,0,0:0:0:0:
36,192,89110,1,0,0:0:0:0:
182,192,89110,1,2,0:0:0:0:
329,192,89197,1,2,0:0:0:0:
475,192,89197,1,0,0:0:0:0:
36,192,89284,1,0,0:0:0:0:
256,192,89284,1,0,0:0:0:0:
182,192,89459,1,0,0:0:0:0:
475,192,89459,1,0,0:0:0:0:
402,192,89459,1,2,0:0:0:0:
256,192,89546,1,0,0:0:0:0:
36,192,89633,1,8,0:0:0:0:
475,192,89633,1,0,0:0:0:50:crashR.wav
329,192,89633,1,8,0:0:0:0:
402,192,89633,1,2,0:0:0:0:
256,192,89808,1,0,0:0:0:0:
109,192,89808,1,0,0:0:0:0:
182,192,89982,1,0,0:0:0:0:
329,192,89982,1,0,0:0:0:0:
36,192,90157,1,0,0:0:0:0:
109,192,90157,1,2,0:0:0:0:
329,192,90157,1,0,0:0:0:0:
475,192,90244,1,0,0:0:0:0:
182,192,90244,1,0,0:0:0:0:
36,192,90331,1,0,0:0:0:50:crashL.wav
109,192,90331,1,8,0:0:0:0:
329,192,90331,1,10,0:0:0:0:
402,192,90331,1,0,0:0:0:0:
256,192,90505,1,0,0:0:0:0:
475,192,90505,1,0,0:0:0:0:
402,192,90680,1,0,0:0:0:0:
475,192,90680,1,8,0:0:0:0:
109,192,90680,1,2,0:0:0:0:
36,192,90680,1,8,0:0:0:0:
182,192,90767,1,2,0:0:0:0:
329,192,90767,1,0,0:0:0:0:
36,192,90854,1,0,0:0:0:0:
256,192,90854,1,2,0:0:0:0:
329,192,90898,1,0,0:0:0:0:
402,192,90941,1,0,0:0:0:0:
475,192,90985,1,0,0:0:0:0:
36,192,91029,1,8,0:0:0:0:
109,192,91029,1,8,0:0:0:0:
182,192,91029,1,2,0:0:0:0:
402,192,91116,1,0,0:0:0:0:
475,192,91116,1,0,0:0:0:0:
329,192,91116,1,2,0:0:0:0:
36,192,91203,1,0,0:0:0:0:
182,192,91203,1,2,0:0:0:0:
329,192,91261,1,2,0:0:0:0:
475,192,91261,1,0,0:0:0:0:
182,192,91319,1,2,0:0:0:0:
36,192,91319,1,0,0:0:0:0:
475,192,91378,1,0,0:0:0:0:
329,192,91378,1,2,0:0:0:0:
402,192,91378,1,0,0:0:0:0:
109,192,91552,1,0,0:0:0:0:
182,192,91552,1,2,0:0:0:0:
36,192,91552,1,0,0:0:0:0:
256,192,91726,1,2,0:0:0:0:
329,192,91726,1,8,0:0:0:0:
182,192,91726,1,8,0:0:0:0:
36,192,91814,1,0,0:0:0:0:
475,192,91814,1,2,0:0:0:0:
182,192,91901,1,0,0:0:0:0:
256,192,91901,1,2,0:0:0:0:
329,192,91901,1,0,0:0:0:0:
36,192,91988,1,2,0:0:0:0:
475,192,91988,1,0,0:0:0:0:
182,192,92075,1,2,0:0:0:0:
329,192,92075,1,4,0:0:0:0:
109,192,92075,1,0,0:0:0:0:
402,192,92075,1,4,0:0:0:0:
402,192,92250,1,0,0:0:0:0:
475,192,92337,1,0,0:0:0:0:
402,192,92424,1,0,0:0:0:0:
329,192,92511,1,0,0:0:0:0:
256,192,92598,1,0,0:0:0:0:
182,192,92686,1,0,0:0:0:0:
109,192,92773,1,0,0:0:0:0:
182,192,92947,1,0,0:0:0:0:
256,192,93034,1,0,0:0:0:0:
329,192,93122,1,0,0:0:0:0:
256,192,93209,1,0,0:0:0:0:
182,192,93296,1,0,0:0:0:0:
109,192,93383,1,0,0:0:0:0:
36,192,93471,1,4,0:0:0:0:
475,192,93471,1,4,0:0:0:0:
256,192,93471,1,2,0:0:0:0:
329,192,93645,1,0,0:0:0:0:
475,192,93732,1,0,0:0:0:0:
402,192,93819,1,0,0:0:0:0:
329,192,93907,1,0,0:0:0:0:
256,192,93994,1,0,0:0:0:0:
182,192,94081,1,0,0:0:0:0:
109,192,94168,1,0,0:0:0:0:
475,192,94343,1,0,0:0:0:0:
36,192,94343,1,0,0:0:0:0:
182,192,94343,1,2,0:0:0:0:
256,192,94459,1,0,0:0:0:0:
329,192,94517,1,2,0:0:0:0:
475,192,94517,1,8,0:0:0:0:
402,192,94517,1,8,0:0:0:0:
182,192,94575,1,0,0:0:0:0:
109,192,94633,1,0,0:0:0:0:
36,192,94691,1,0,0:0:0:0:
475,192,94691,1,2,0:0:0:0:
402,192,94750,1,2,0:0:0:0:
109,192,94750,1,0,0:0:0:0:
182,192,94808,1,0,0:0:0:0:
329,192,94808,1,2,0:0:0:0:
475,192,94866,1,2,0:0:0:0:
256,192,94866,1,0,0:0:0:0:
36,192,94866,1,0,0:0:0:50:crashL.wav
329,192,95040,1,0,0:0:0:0:
182,192,95128,1,0,0:0:0:0:
256,192,95215,1,0,0:0:0:0:
329,192,95302,1,0,0:0:0:0:
402,192,95389,1,0,0:0:0:0:
475,192,95476,1,0,0:0:0:0:
329,192,95564,1,0,0:0:0:0:
182,192,95564,1,0,0:0:0:0:
109,192,95738,1,0,0:0:0:0:
256,192,95738,1,0,0:0:0:0:
36,192,95912,1,0,0:0:0:0:
182,192,95912,1,0,0:0:0:0:
329,192,96087,1,0,0:0:0:0:
475,192,96087,1,0,0:0:0:0:
109,192,96261,1,4,0:0:0:0:
36,192,96261,1,2,0:0:0:0:
182,192,96261,1,4,0:0:0:0:
256,192,96261,1,0,0:0:0:0:
475,192,96436,1,8,0:0:0:0:
402,192,96523,1,8,0:0:0:0:
109,192,96610,1,2,0:0:0:0:
182,192,96610,1,4,0:0:0:0:
329,192,96610,1,0,0:0:0:0:
256,192,96610,1,4,0:0:0:0:
36,192,96784,1,8,0:0:0:0:
109,192,96872,1,8,0:0:0:0:
182,192,96959,1,2,0:0:0:0:
256,192,96959,1,4,0:0:0:0:
329,192,96959,1,4,0:0:0:0:
402,192,96959,1,0,0:0:0:0:
109,192,97133,1,8,0:0:0:0:
182,192,97221,1,8,0:0:0:0:
256,192,97308,1,2,0:0:0:0:
329,192,97308,1,4,0:0:0:0:
402,192,97308,1,4,0:0:0:0:
475,192,97308,1,8,0:0:0:0:
36,192,97395,1,8,0:0:0:0:
109,192,97395,1,2,0:0:0:0:
402,192,97482,1,2,0:0:0:0:
475,192,97482,1,8,0:0:0:0:
109,192,97569,1,2,0:0:0:0:
36,192,97569,1,8,0:0:0:0:
182,192,97657,1,4,0:0:0:0:
329,192,97657,1,2,0:0:0:0:
402,192,97657,1,4,0:0:0:0:
256,192,97657,1,0,0:0:0:0:
475,192,97744,1,0,0:0:0:0:
109,192,97744,1,0,0:0:0:0:
402,192,97831,1,0,0:0:0:0:
36,192,97831,1,0,0:0:0:0:
109,192,97918,1,0,0:0:0:0:
329,192,97918,1,0,0:0:0:0:
182,192,98005,1,2,0:0:0:0:
402,192,98005,1,8,0:0:0:0:
36,192,98005,1,8,0:0:0:0:
256,192,98093,1,0,0:0:0:0:
475,192,98093,1,0,0:0:0:0:
402,192,98180,1,0,0:0:0:0:
182,192,98180,1,0,0:0:0:0:
329,192,98267,1,0,0:0:0:0:
109,192,98267,1,0,0:0:0:0:
182,192,98354,1,0,0:0:0:0:
475,192,98354,1,0,0:0:0:0:
256,192,98354,1,2,0:0:0:0:
402,192,98441,1,0,0:0:0:0:
109,192,98441,1,0,0:0:0:0:
329,192,98529,1,0,0:0:0:0:
36,192,98529,1,0,0:0:0:0:
109,192,98616,1,0,0:0:0:0:
402,192,98616,1,0,0:0:0:0:
36,192,98703,1,8,0:0:0:0:
256,192,98703,1,2,0:0:0:0:
475,192,98703,1,8,0:0:0:0:
109,192,98790,1,0,0:0:0:0:
329,192,98790,1,0,0:0:0:0:
182,192,98878,1,0,0:0:0:0:
402,192,98878,1,0,0:0:0:0:
256,192,98965,1,0,0:0:0:0:
475,192,98965,1,0,0:0:0:0:
109,192,99052,1,0,0:0:0:0:
329,192,99052,1,2,0:0:0:0:
36,192,99052,1,0,0:0:0:0:
182,192,99139,1,0,0:0:0:0:
402,192,99139,1,0,0:0:0:0:
329,192,99226,1,0,0:0:0:0:
109,192,99226,1,0,0:0:0:0:
256,192,99314,1,0,0:0:0:0:
36,192,99314,1,0,0:0:0:0:
109,192,99401,1,2,0:0:0:0:
402,192,99401,1,8,0:0:0:0:
182,192,99401,1,8,0:0:0:0:
256,192,99488,1,0,0:0:0:0:
475,192,99488,1,0,0:0:0:0:
402,192,99575,1,0,0:0:0:0:
182,192,99575,1,0,0:0:0:0:
329,192,99662,1,0,0:0:0:0:
109,192,99662,1,0,0:0:0:0:
36,192,99750,1,0,0:0:0:0:
256,192,99750,1,2,0:0:0:0:
475,192,99750,1,0,0:0:0:0:
109,192,99808,1,0,0:0:0:0:
329,192,99808,1,0,0:0:0:0:
182,192,99866,1,0,0:0:0:0:
402,192,99866,1,0,0:0:0:0:
36,192,99924,1,0,0:0:0:0:
256,192,99924,1,0,0:0:0:0:
109,192,99982,1,0,0:0:0:0:
329,192,99982,1,0,0:0:0:0:
182,192,100040,1,0,0:0:0:0:
402,192,100040,1,0,0:0:0:0:
256,192,100098,1,2,0:0:0:0:
36,192,100098,1,8,0:0:0:0:
475,192,100098,128,0,100447:0:0:0:0:
36,192,100273,1,0,0:0:0:0:
329,192,100273,1,2,0:0:0:0:
402,192,100273,1,0,0:0:0:0:
109,192,100331,1,0,0:0:0:0:
182,192,100389,1,0,0:0:0:0:
256,192,100447,1,0,0:0:0:50:crashL.wav
402,192,100447,1,2,0:0:0:0:
329,192,100447,1,0,0:0:0:50:crashR.wav
36,192,100447,1,0,0:0:0:0:
182,192,100534,1,0,0:0:0:0:
475,192,100534,1,0,0:0:0:0:
402,192,100622,1,0,0:0:0:0:
109,192,100622,1,0,0:0:0:0:
36,192,100709,1,0,0:0:0:0:
329,192,100709,1,0,0:0:0:0:
109,192,100796,1,0,0:0:0:0:
402,192,100796,1,0,0:0:0:0:
475,192,100883,1,0,0:0:0:0:
182,192,100883,1,0,0:0:0:0:
402,192,100971,1,0,0:0:0:0:
109,192,100971,1,0,0:0:0:0:
36,192,101058,1,0,0:0:0:0:
329,192,101058,1,0,0:0:0:0:
475,192,101145,1,0,0:0:0:0:
182,192,101145,1,0,0:0:0:0:
36,192,101232,1,0,0:0:0:0:
256,192,101232,1,0,0:0:0:0:
109,192,101319,1,0,0:0:0:0:
329,192,101319,1,0,0:0:0:0:
402,192,101407,1,0,0:0:0:0:
182,192,101407,1,0,0:0:0:0:
256,192,101494,1,0,0:0:0:0:
36,192,101494,1,0,0:0:0:0:
109,192,101581,1,0,0:0:0:0:
329,192,101581,1,0,0:0:0:0:
402,192,101668,1,0,0:0:0:0:
182,192,101668,1,0,0:0:0:0:
256,192,101755,1,0,0:0:0:0:
475,192,101755,1,0,0:0:0:0:
36,192,101843,1,0,0:0:0:0:
109,192,101843,1,2,0:0:0:0:
329,192,101843,1,0,0:0:0:0:
402,192,101843,1,0,0:0:0:0:
329,192,102104,1,0,0:0:0:0:
475,192,102104,1,0,0:0:0:0:
36,192,102191,1,0,0:0:0:0:
182,192,102191,1,2,0:0:0:0:
402,192,102366,1,0,0:0:0:0:
182,192,102366,1,2,0:0:0:0:
329,192,102453,1,0,0:0:0:0:
109,192,102453,1,0,0:0:0:0:
402,192,102540,1,0,0:0:0:0:
182,192,102540,1,0,0:0:0:0:
109,192,102715,1,0,0:0:0:0:
256,192,102715,1,2,0:0:0:0:
402,192,102715,1,0,0:0:0:0:
475,192,102889,1,0,0:0:0:0:
402,192,102889,1,2,0:0:0:0:
329,192,102947,1,2,0:0:0:0:
182,192,102947,1,0,0:0:0:0:
109,192,103005,1,2,0:0:0:0:
36,192,103005,1,0,0:0:0:0:
402,192,103064,1,2,0:0:0:0:
475,192,103064,1,0,0:0:0:0:
109,192,103151,1,2,0:0:0:0:
36,192,103151,1,0,0:0:0:0:
182,192,103238,1,0,0:0:0:40:crashL.wav
256,192,103238,1,2,0:0:0:0:
329,192,103238,1,0,0:0:0:40:crashR.wav
475,192,103238,1,0,0:0:0:0:
36,192,103325,1,0,0:0:0:0:
109,192,103412,1,0,0:0:0:0:
182,192,103500,1,0,0:0:0:0:
475,192,103587,1,8,0:0:0:0:
256,192,103674,1,0,0:0:0:0:
329,192,103761,1,0,0:0:0:0:
402,192,103848,1,0,0:0:0:0:
109,192,103936,1,0,0:0:0:0:
182,192,104023,1,0,0:0:0:0:
256,192,104110,1,0,0:0:0:0:
329,192,104197,1,0,0:0:0:0:
36,192,104284,1,8,0:0:0:0:
109,192,104372,1,0,0:0:0:0:
182,192,104459,1,0,0:0:0:0:
256,192,104546,1,0,0:0:0:0:
475,192,104633,1,0,0:0:0:0:
402,192,104721,1,0,0:0:0:0:
329,192,104808,1,0,0:0:0:0:
256,192,104895,1,0,0:0:0:0:
109,192,104982,1,8,0:0:0:0:
329,192,105069,1,0,0:0:0:0:
256,192,105157,1,0,0:0:0:0:
182,192,105244,1,0,0:0:0:0:
402,192,105331,1,0,0:0:0:0:
256,192,105418,1,0,0:0:0:0:
182,192,105505,1,0,0:0:0:0:
109,192,105593,1,0,0:0:0:0:
329,192,105680,1,8,0:0:0:0:
182,192,105767,1,0,0:0:0:0:
109,192,105854,1,0,0:0:0:0:
36,192,105941,1,0,0:0:0:0:
475,192,106029,128,0,107424:0:0:0:0:
402,192,106029,1,0,0:0:0:0:
256,192,106029,1,0,0:0:0:0:
36,192,106116,1,0,0:0:0:0:
109,192,106203,1,0,0:0:0:0:
182,192,106290,1,0,0:0:0:0:
256,192,106378,1,8,0:0:0:0:
329,192,106465,1,0,0:0:0:0:
36,192,106552,1,0,0:0:0:0:
109,192,106639,1,0,0:0:0:0:
182,192,106726,1,0,0:0:0:0:
402,192,106814,1,0,0:0:0:0:
329,192,106901,1,0,0:0:0:0:
256,192,106988,1,0,0:0:0:0:
36,192,107075,1,8,0:0:0:0:
109,192,107162,1,0,0:0:0:0:
182,192,107250,1,0,0:0:0:0:
329,192,107337,1,0,0:0:0:0:
402,192,107424,1,0,0:0:0:0:
256,192,107511,1,0,0:0:0:0:
109,192,107598,1,0,0:0:0:0:
36,192,107686,1,0,0:0:0:0:
475,192,107773,1,8,0:0:0:0:
402,192,107860,1,0,0:0:0:0:
329,192,107947,1,0,0:0:0:0:
256,192,108034,1,0,0:0:0:0:
36,192,108122,128,0,108819:0:0:0:0:
109,192,108122,128,0,108819:0:0:0:0:
182,192,108122,1,0,0:0:0:0:
475,192,108209,1,0,0:0:0:0:
402,192,108296,1,0,0:0:0:0:
329,192,108383,1,0,0:0:0:0:
256,192,108471,1,8,0:0:0:0:
182,192,108558,1,0,0:0:0:0:
475,192,108645,1,0,0:0:0:0:
402,192,108732,1,0,0:0:0:0:
329,192,108819,128,0,110215:0:0:0:0:
475,192,108819,128,0,110215:0:0:0:0:
256,192,108819,1,0,0:0:0:0:
36,192,108907,1,0,0:0:0:0:
109,192,108994,1,0,0:0:0:0:
182,192,109081,1,0,0:0:0:0:
109,192,109168,1,8,0:0:0:0:
182,192,109255,1,0,0:0:0:0:
256,192,109343,1,0,0:0:0:0:
402,192,109430,1,0,0:0:0:0:
182,192,109517,1,0,0:0:0:0:
256,192,109604,1,0,0:0:0:0:
402,192,109691,1,0,0:0:0:0:
36,192,109779,1,0,0:0:0:0:
109,192,109866,1,8,0:0:0:0:
182,192,109953,1,0,0:0:0:0:
256,192,110040,1,0,0:0:0:0:
402,192,110128,1,0,0:0:0:0:
36,192,110215,128,0,111610:0:0:0:0:
109,192,110215,128,0,111610:0:0:0:0:
182,192,110215,128,0,111610:0:0:0:0:
256,192,110215,1,0,0:0:0:0:
402,192,110302,1,0,0:0:0:0:
329,192,110389,1,0,0:0:0:0:
256,192,110476,1,0,0:0:0:0:
402,192,110564,1,8,0:0:0:0:
329,192,110651,1,0,0:0:0:0:
475,192,110738,1,0,0:0:0:0:
256,192,110825,1,0,0:0:0:0:
475,192,110912,1,0,0:0:0:0:
402,192,111000,1,0,0:0:0:0:
329,192,111087,1,0,0:0:0:0:
256,192,111174,1,0,0:0:0:0:
475,192,111261,1,8,0:0:0:0:
329,192,111348,1,0,0:0:0:0:
402,192,111436,1,0,0:0:0:0:
256,192,111523,1,0,0:0:0:0:
475,192,111610,128,0,113005:0:0:0:0:
402,192,111610,128,0,113005:0:0:0:0:
329,192,111610,1,0,0:0:0:0:
256,192,111697,1,0,0:0:0:0:
182,192,111784,1,0,0:0:0:0:
109,192,111872,1,0,0:0:0:0:
36,192,111959,1,8,0:0:0:0:
109,192,112046,1,0,0:0:0:0:
182,192,112133,1,0,0:0:0:0:
256,192,112221,1,0,0:0:0:0:
109,192,112308,1,0,0:0:0:0:
329,192,112395,1,0,0:0:0:0:
36,192,112482,1,0,0:0:0:0:
256,192,112569,1,0,0:0:0:0:
109,192,112657,1,8,0:0:0:0:
182,192,112744,1,0,0:0:0:0:
256,192,112831,1,0,0:0:0:0:
329,192,112918,1,0,0:0:0:0:
36,192,113005,128,0,114401:0:0:0:0:
182,192,113005,128,0,114401:0:0:0:0:
109,192,113005,1,0,0:0:0:0:
329,192,113093,1,0,0:0:0:0:
329,192,113180,1,0,0:0:0:0:
475,192,113267,1,0,0:0:0:0:
475,192,113354,1,8,0:0:0:0:
402,192,113441,1,0,0:0:0:0:
329,192,113529,1,0,0:0:0:0:
256,192,113616,1,0,0:0:0:0:
256,192,113703,1,0,0:0:0:0:
475,192,113790,1,0,0:0:0:0:
402,192,113878,1,0,0:0:0:0:
329,192,113965,1,0,0:0:0:0:
475,192,114052,1,8,0:0:0:0:
402,192,114139,1,0,0:0:0:0:
329,192,114226,1,0,0:0:0:0:
256,192,114314,1,0,0:0:0:0:
475,192,114401,128,0,117191:0:0:0:0:
402,192,114401,1,4,0:0:0:0:
109,192,114401,1,4,0:0:0:0:
256,192,114488,1,0,0:0:0:0:
329,192,114575,1,0,0:0:0:0:
402,192,114662,1,0,0:0:0:0:
36,192,114750,1,8,0:0:0:0:
109,192,114837,1,0,0:0:0:0:
182,192,114924,1,0,0:0:0:0:
256,192,115011,1,0,0:0:0:0:
109,192,115098,1,0,0:0:0:0:
182,192,115186,1,0,0:0:0:0:
256,192,115273,1,0,0:0:0:0:
329,192,115360,1,0,0:0:0:0:
109,192,115447,1,8,0:0:0:0:
182,192,115534,1,0,0:0:0:0:
256,192,115622,1,0,0:0:0:0:
329,192,115709,1,0,0:0:0:0:
402,192,115796,1,0,0:0:0:0:
329,192,115883,1,0,0:0:0:0:
256,192,115971,1,0,0:0:0:0:
182,192,116058,1,0,0:0:0:0:
109,192,116145,1,8,0:0:0:0:
36,192,116232,1,0,0:0:0:0:
402,192,116319,1,0,0:0:0:0:
329,192,116407,1,0,0:0:0:0:
256,192,116494,1,0,0:0:0:0:
182,192,116581,1,0,0:0:0:0:
109,192,116668,1,0,0:0:0:0:
36,192,116755,1,0,0:0:0:0:
36,192,116843,1,8,0:0:0:0:
402,192,116930,1,0,0:0:0:0:
329,192,117017,1,0,0:0:0:0:
182,192,117104,1,0,0:0:0:0:
36,192,117191,128,0,119982:0:0:0:0:
109,192,117191,1,0,0:0:0:0:
402,192,117191,1,0,0:0:0:0:
182,192,117279,1,0,0:0:0:0:
256,192,117366,1,0,0:0:0:0:
329,192,117453,1,0,0:0:0:0:
182,192,117540,1,8,0:0:0:0:
256,192,117628,1,0,0:0:0:0:
329,192,117715,1,0,0:0:0:0:
402,192,117802,1,0,0:0:0:0:
109,192,117889,1,0,0:0:0:0:
256,192,117976,1,0,0:0:0:0:
329,192,118064,1,0,0:0:0:0:
402,192,118151,1,0,0:0:0:0:
182,192,118238,1,8,0:0:0:0:
256,192,118325,1,0,0:0:0:0:
329,192,118412,1,0,0:0:0:0:
402,192,118500,1,0,0:0:0:0:
475,192,118587,1,0,0:0:0:0:
329,192,118674,1,0,0:0:0:0:
256,192,118761,1,0,0:0:0:0:
182,192,118848,1,0,0:0:0:0:
402,192,118936,1,8,0:0:0:0:
329,192,119023,1,0,0:0:0:0:
256,192,119110,1,0,0:0:0:0:
182,192,119197,1,0,0:0:0:0:
475,192,119284,1,0,0:0:0:0:
109,192,119284,128,0,119982:0:0:0:0:
402,192,119372,1,0,0:0:0:0:
329,192,119459,1,0,0:0:0:0:
256,192,119546,1,0,0:0:0:0:
182,192,119633,1,8,0:0:0:0:
402,192,119721,1,0,0:0:0:0:
329,192,119808,1,0,0:0:0:0:
256,192,119895,1,0,0:0:0:0:
475,192,119982,128,0,121378:0:0:0:0:
402,192,119982,128,0,121378:0:0:0:0:
182,192,119982,1,0,0:0:0:0:
256,192,120069,1,0,0:0:0:0:
329,192,120157,1,0,0:0:0:0:
182,192,120244,1,0,0:0:0:0:
36,192,120331,1,8,0:0:0:0:
109,192,120418,1,0,0:0:0:0:
182,192,120505,1,0,0:0:0:0:
109,192,120593,1,0,0:0:0:0:
36,192,120680,1,0,0:0:0:0:
109,192,120767,1,0,0:0:0:0:
182,192,120854,1,0,0:0:0:0:
256,192,120941,1,0,0:0:0:0:
109,192,121029,1,8,0:0:0:0:
182,192,121116,1,0,0:0:0:0:
256,192,121203,1,0,0:0:0:0:
329,192,121290,1,0,0:0:0:0:
109,192,121378,128,0,122686:0:0:0:0:
36,192,121378,128,0,122686:0:0:0:0:
182,192,121378,128,0,122686:0:0:0:0:
256,192,121378,1,0,0:0:0:0:
402,192,121465,1,0,0:0:0:0:
329,192,121552,1,0,0:0:0:0:
475,192,121639,1,0,0:0:0:0:
402,192,121726,1,8,0:0:0:0:
329,192,121814,1,0,0:0:0:0:
402,192,121901,1,0,0:0:0:0:
256,192,121988,1,0,0:0:0:0:
475,192,122075,1,0,0:0:0:0:
402,192,122162,1,0,0:0:0:0:
329,192,122250,1,0,0:0:0:0:
256,192,122337,1,0,0:0:0:0:
475,192,122424,1,8,0:0:0:0:
402,192,122511,1,0,0:0:0:0:
329,192,122598,1,0,0:0:0:0:
256,192,122686,1,0,0:0:0:0:
109,192,122773,1,0,0:0:0:0:
36,192,122773,1,0,0:0:0:50:crashL.wav
402,192,122773,1,2,0:0:0:0:
475,192,122773,1,0,0:0:0:0:
182,192,122860,1,0,0:0:0:0:
329,192,122947,1,0,0:0:0:0:
182,192,123034,1,0,0:0:0:0:
329,192,123122,1,8,0:0:0:0:
475,192,123122,1,8,0:0:0:0:
182,192,123209,1,0,0:0:0:0:
329,192,123296,1,0,0:0:0:0:
182,192,123383,1,0,0:0:0:0:
36,192,123471,1,0,0:0:0:0:
109,192,123471,1,2,0:0:0:0:
402,192,123471,1,0,0:0:0:0:
475,192,123471,1,0,0:0:0:0:
329,192,123558,1,0,0:0:0:0:
182,192,123645,1,0,0:0:0:0:
329,192,123732,1,0,0:0:0:0:
182,192,123819,1,8,0:0:0:0:
36,192,123819,1,8,0:0:0:0:
329,192,123907,1,0,0:0:0:0:
182,192,123994,1,0,0:0:0:0:
329,192,124081,1,0,0:0:0:0:
36,192,124168,1,0,0:0:0:0:
109,192,124168,1,0,0:0:0:0:
402,192,124168,1,2,0:0:0:0:
475,192,124168,1,0,0:0:0:0:
182,192,124255,1,0,0:0:0:0:
329,192,124343,1,0,0:0:0:0:
475,192,124343,1,0,0:0:0:0:
256,192,124430,1,0,0:0:0:0:
182,192,124517,1,2,0:0:0:0:
36,192,124517,1,8,0:0:0:0:
109,192,124517,1,8,0:0:0:0:
256,192,124604,1,0,0:0:0:0:
329,192,124691,1,0,0:0:0:0:
475,192,124691,1,0,0:0:0:0:
256,192,124779,1,0,0:0:0:0:
109,192,124866,1,2,0:0:0:0:
36,192,124866,1,0,0:0:0:0:
402,192,124866,1,0,0:0:0:0:
475,192,124866,1,0,0:0:0:0:
182,192,124909,1,0,0:0:0:0:
256,192,124953,1,0,0:0:0:0:
329,192,124997,1,0,0:0:0:0:
475,192,125040,1,0,0:0:0:0:
402,192,125040,1,2,0:0:0:0:
256,192,125128,1,0,0:0:0:0:
36,192,125215,1,8,0:0:0:0:
109,192,125215,1,8,0:0:0:0:
182,192,125215,1,2,0:0:0:0:
329,192,125302,1,2,0:0:0:0:
402,192,125302,1,0,0:0:0:0:
475,192,125302,1,0,0:0:0:0:
36,192,125389,1,0,0:0:0:0:
109,192,125389,1,0,0:0:0:0:
182,192,125389,1,2,0:0:0:0:
329,192,125476,1,2,0:0:0:0:
402,192,125476,1,0,0:0:0:0:
475,192,125476,1,0,0:0:0:0:
36,192,125564,1,4,0:0:0:0:
109,192,125564,1,4,0:0:0:0:
182,192,125564,1,2,0:0:0:0:
256,192,125564,1,0,0:0:0:0:
402,192,125680,1,0,0:0:0:0:
182,192,125738,1,0,0:0:0:0:
329,192,125796,1,0,0:0:0:0:
475,192,125912,1,8,0:0:0:0:
36,192,125912,1,8,0:0:0:0:
109,192,125912,1,2,0:0:0:0:
329,192,126029,1,0,0:0:0:0:
36,192,126087,1,0,0:0:0:0:
256,192,126145,1,0,0:0:0:0:
402,192,126261,1,0,0:0:0:0:
109,192,126261,1,0,0:0:0:0:
182,192,126261,1,2,0:0:0:0:
329,192,126378,1,0,0:0:0:0:
182,192,126436,1,0,0:0:0:0:
256,192,126494,1,0,0:0:0:0:
329,192,126610,1,8,0:0:0:0:
36,192,126610,1,8,0:0:0:0:
109,192,126610,1,2,0:0:0:0:
256,192,126726,1,0,0:0:0:0:
475,192,126784,1,0,0:0:0:0:
182,192,126843,1,0,0:0:0:0:
256,192,126959,1,2,0:0:0:0:
329,192,126959,1,0,0:0:0:0:
475,192,126959,1,0,0:0:0:0:
182,192,127075,1,0,0:0:0:0:
329,192,127133,1,0,0:0:0:0:
109,192,127191,1,0,0:0:0:0:
182,192,127308,1,2,0:0:0:0:
402,192,127308,1,8,0:0:0:0:
475,192,127308,1,8,0:0:0:0:
109,192,127424,1,0,0:0:0:0:
329,192,127482,1,0,0:0:0:0:
36,192,127540,1,0,0:0:0:0:
475,192,127657,1,0,0:0:0:0:
182,192,127657,1,0,0:0:0:0:
256,192,127657,1,2,0:0:0:0:
402,192,127773,1,0,0:0:0:0:
36,192,127831,1,0,0:0:0:0:
329,192,127889,1,0,0:0:0:0:
402,192,128005,1,8,0:0:0:0:
109,192,128005,1,8,0:0:0:0:
182,192,128005,1,2,0:0:0:0:
329,192,128122,1,0,0:0:0:0:
109,192,128180,1,0,0:0:0:0:
256,192,128238,1,0,0:0:0:0:
36,192,128354,1,0,0:0:0:0:
329,192,128354,1,2,0:0:0:0:
475,192,128354,1,0,0:0:0:0:
109,192,128441,1,0,0:0:0:0:
182,192,128529,1,0,0:0:0:0:
475,192,128529,1,0,0:0:0:0:
256,192,128616,1,0,0:0:0:0:
109,192,128703,1,8,0:0:0:0:
402,192,128703,1,2,0:0:0:0:
329,192,128703,1,8,0:0:0:0:
182,192,128790,1,0,0:0:0:0:
256,192,128878,1,0,0:0:0:0:
36,192,128878,1,0,0:0:0:0:
329,192,128965,1,0,0:0:0:0:
475,192,129052,1,0,0:0:0:0:
109,192,129052,1,2,0:0:0:0:
36,192,129052,1,0,0:0:0:0:
402,192,129110,1,0,0:0:0:0:
329,192,129168,1,0,0:0:0:0:
182,192,129226,1,0,0:0:0:0:
256,192,129226,1,0,0:0:0:0:
109,192,129314,1,0,0:0:0:0:
329,192,129401,1,2,0:0:0:0:
36,192,129401,1,8,0:0:0:0:
475,192,129401,1,8,0:0:0:0:
182,192,129488,1,0,0:0:0:0:
256,192,129575,1,0,0:0:0:0:
36,192,129575,1,0,0:0:0:0:
402,192,129633,1,0,0:0:0:0:
475,192,129750,1,0,0:0:0:0:
109,192,129750,1,0,0:0:0:0:
182,192,129750,1,2,0:0:0:0:
36,192,129866,1,0,0:0:0:0:
329,192,129924,1,0,0:0:0:0:
109,192,129982,1,0,0:0:0:0:
182,192,130098,1,8,0:0:0:0:
402,192,130098,1,2,0:0:0:0:
475,192,130098,1,8,0:0:0:0:
109,192,130215,1,0,0:0:0:0:
329,192,130273,1,0,0:0:0:0:
182,192,130331,1,0,0:0:0:0:
329,192,130447,1,2,0:0:0:0:
36,192,130447,1,0,0:0:0:0:
475,192,130447,1,0,0:0:0:0:
256,192,130564,1,0,0:0:0:0:
109,192,130622,1,0,0:0:0:0:
329,192,130680,1,0,0:0:0:0:
475,192,130796,1,8,0:0:0:0:
182,192,130796,1,2,0:0:0:0:
36,192,130796,1,8,0:0:0:0:
402,192,130912,1,0,0:0:0:0:
109,192,130971,1,0,0:0:0:0:
329,192,131029,1,0,0:0:0:0:
256,192,131145,1,2,0:0:0:0:
36,192,131145,1,0,0:0:0:0:
475,192,131145,1,0,0:0:0:50:crashR.wav
402,192,131145,1,0,0:0:0:0:
329,192,131319,1,0,0:0:0:0:
182,192,131319,1,0,0:0:0:0:
36,192,131494,1,0,0:0:0:0:
329,192,131494,1,0,0:0:0:0:
109,192,131581,1,0,0:0:0:0:
402,192,131581,1,0,0:0:0:0:
475,192,131668,1,0,0:0:0:0:
182,192,131668,1,0,0:0:0:0:
256,192,131668,1,2,0:0:0:0:
109,192,132017,1,0,0:0:0:0:
256,192,132017,1,2,0:0:0:0:
475,192,132017,1,0,0:0:0:0:
402,192,132104,1,0,0:0:0:0:
36,192,132191,1,0,0:0:0:0:
182,192,132191,1,2,0:0:0:0:
329,192,132191,1,0,0:0:0:0:
402,192,132279,1,0,0:0:0:0:
256,192,132279,1,2,0:0:0:0:
109,192,132279,1,0,0:0:0:0:
182,192,132366,1,0,0:0:0:0:
329,192,132366,1,2,0:0:0:0:
475,192,132366,1,0,0:0:0:0:
36,192,132715,1,0,0:0:0:0:
109,192,132715,1,0,0:0:0:0:
256,192,132715,1,2,0:0:0:0:
329,192,132802,1,0,0:0:0:0:
36,192,132889,1,0,0:0:0:0:
402,192,132889,1,0,0:0:0:0:
182,192,132889,1,2,0:0:0:0:
329,192,133064,1,2,0:0:0:0:
182,192,133064,1,0,0:0:0:0:
402,192,133064,1,0,0:0:0:0:
475,192,133151,1,0,0:0:0:0:
402,192,133412,1,0,0:0:0:0:
475,192,133412,1,2,0:0:0:0:
182,192,133412,1,0,0:0:0:0:
329,192,133587,1,2,0:0:0:0:
109,192,133587,1,0,0:0:0:0:
256,192,133587,1,0,0:0:0:0:
36,192,133761,128,0,134459:0:0:0:0:
475,192,133761,128,0,134459:0:0:0:0:
182,192,133761,1,2,0:0:0:0:
329,192,133761,1,0,0:0:0:50:crashR.wav
109,192,134110,1,0,0:0:0:0:
182,192,134110,1,0,0:0:0:0:
256,192,134110,1,2,0:0:0:0:
329,192,134284,1,2,0:0:0:0:
402,192,134284,1,0,0:0:0:0:
109,192,134459,128,0,135157:0:0:0:0:
402,192,134459,128,0,135157:0:0:0:0:
182,192,134459,1,2,0:0:0:0:
329,192,134459,1,0,0:0:0:0:
256,192,134808,1,0,0:0:0:0:
36,192,134808,1,2,0:0:0:0:
475,192,134808,1,0,0:0:0:0:
182,192,134982,1,2,0:0:0:0:
329,192,134982,1,0,0:0:0:0:
182,192,135157,128,0,135854:0:0:0:0:
329,192,135157,128,0,135854:0:0:0:0:
36,192,135157,1,2,0:0:0:0:
475,192,135157,1,0,0:0:0:50:crashR.wav
36,192,135505,1,0,0:0:0:0:
475,192,135505,1,2,0:0:0:0:
256,192,135505,1,0,0:0:0:0:
109,192,135680,1,0,0:0:0:0:
402,192,135680,1,2,0:0:0:0:
256,192,135854,128,0,136552:0:0:0:0:
36,192,135854,1,0,0:0:0:0:
475,192,135854,1,2,0:0:0:0:
36,192,136203,1,0,0:0:0:0:
109,192,136203,1,0,0:0:0:0:
182,192,136203,1,2,0:0:0:0:
329,192,136378,1,2,0:0:0:0:
402,192,136378,1,0,0:0:0:0:
475,192,136378,1,0,0:0:0:0:
182,192,136552,1,2,0:0:0:0:
109,192,136552,1,0,0:0:0:0:
329,192,136639,1,2,0:0:0:0:
402,192,136639,1,0,0:0:0:0:
36,192,136726,1,4,0:0:0:0:
109,192,136726,1,0,0:0:0:0:
256,192,136726,1,2,0:0:0:0:
475,192,136726,1,4,0:0:0:0:
475,192,137075,1,0,0:0:0:0:
256,192,137075,1,2,0:0:0:0:
36,192,137075,1,0,0:0:0:0:
402,192,137162,1,0,0:0:0:0:
182,192,137162,1,0,0:0:0:0:
329,192,137250,1,0,0:0:0:0:
109,192,137250,1,0,0:0:0:0:
256,192,137337,1,0,0:0:0:0:
36,192,137337,1,0,0:0:0:0:
256,192,137424,1,2,0:0:0:0:
475,192,137424,1,0,0:0:0:0:
402,192,137511,1,0,0:0:0:0:
182,192,137511,1,0,0:0:0:0:
329,192,137598,1,0,0:0:0:0:
109,192,137598,1,0,0:0:0:0:
256,192,137686,1,0,0:0:0:0:
36,192,137686,1,0,0:0:0:0:
256,192,137773,1,2,0:0:0:0:
475,192,137773,1,0,0:0:0:0:
402,192,137860,1,0,0:0:0:0:
182,192,137860,1,0,0:0:0:0:
329,192,137947,1,0,0:0:0:0:
109,192,137947,1,0,0:0:0:0:
256,192,138034,1,0,0:0:0:0:
36,192,138034,1,0,0:0:0:0:
109,192,138122,1,4,0:0:0:0:
475,192,138122,128,0,139517:0:0:0:0:
402,192,138122,128,0,139517:0:0:0:0:
329,192,138122,1,2,0:0:0:0:
182,192,138209,1,0,0:0:0:0:
256,192,138296,1,0,0:0:0:0:
329,192,138383,1,0,0:0:0:0:
36,192,138471,1,0,0:0:0:0:
109,192,138558,1,0,0:0:0:0:
182,192,138645,1,0,0:0:0:0:
36,192,138732,1,0,0:0:0:0:
109,192,138819,1,0,0:0:0:0:
182,192,138907,1,0,0:0:0:0:
256,192,138994,1,0,0:0:0:0:
329,192,139081,1,0,0:0:0:0:
109,192,139168,1,0,0:0:0:0:
256,192,139168,1,0,0:0:0:0:
182,192,139255,1,0,0:0:0:0:
36,192,139343,1,0,0:0:0:0:
329,192,139343,1,0,0:0:0:0:
109,192,139430,1,0,0:0:0:0:
256,192,139430,1,0,0:0:0:0:
36,192,139517,1,0,0:0:0:50:crashL.wav
182,192,139517,1,2,0:0:0:0:
329,192,139517,1,0,0:0:0:0:
256,192,139691,1,0,0:0:0:0:
109,192,139691,1,0,0:0:0:0:
329,192,139779,1,0,0:0:0:0:
402,192,139866,1,8,0:0:0:0:
36,192,139866,1,8,0:0:0:0:
182,192,139866,1,2,0:0:0:0:
475,192,139953,1,0,0:0:0:0:
109,192,140040,1,0,0:0:0:0:
36,192,140215,1,0,0:0:0:0:
182,192,140215,1,0,0:0:0:0:
329,192,140215,1,2,0:0:0:0:
329,192,140389,1,0,0:0:0:0:
109,192,140476,1,0,0:0:0:0:
475,192,140476,1,0,0:0:0:0:
402,192,140564,1,8,0:0:0:0:
36,192,140564,1,8,0:0:0:0:
256,192,140564,1,2,0:0:0:0:
109,192,140738,1,0,0:0:0:0:
475,192,140738,1,0,0:0:0:0:
36,192,140912,1,0,0:0:0:0:
182,192,140912,1,2,0:0:0:0:
402,192,140912,1,0,0:0:0:0:
109,192,141087,1,0,0:0:0:0:
329,192,141087,1,0,0:0:0:0:
256,192,141261,1,2,0:0:0:0:
36,192,141261,1,8,0:0:0:0:
475,192,141261,1,8,0:0:0:0:
109,192,141348,1,0,0:0:0:0:
329,192,141348,1,0,0:0:0:0:
402,192,141436,1,0,0:0:0:0:
36,192,141610,1,0,0:0:0:0:
182,192,141610,1,2,0:0:0:0:
329,192,141610,1,0,0:0:0:0:
256,192,141784,1,0,0:0:0:0:
109,192,141872,1,0,0:0:0:0:
475,192,141959,1,8,0:0:0:0:
329,192,141959,1,2,0:0:0:0:
36,192,141959,1,8,0:0:0:0:
109,192,142133,1,0,0:0:0:0:
182,192,142133,1,0,0:0:0:0:
402,192,142133,1,0,0:0:0:0:
36,192,142308,1,0,0:0:0:0:
256,192,142308,1,2,0:0:0:0:
475,192,142308,1,0,0:0:0:0:
109,192,142482,1,0,0:0:0:0:
402,192,142482,1,0,0:0:0:0:
182,192,142657,1,2,0:0:0:0:
329,192,142657,1,8,0:0:0:0:
36,192,142657,1,8,0:0:0:0:
402,192,142744,1,0,0:0:0:0:
475,192,142744,1,0,0:0:0:0:
256,192,142831,1,0,0:0:0:0:
109,192,143005,1,0,0:0:0:0:
182,192,143005,1,0,0:0:0:0:
402,192,143005,1,2,0:0:0:0:
256,192,143180,1,0,0:0:0:0:
329,192,143267,1,0,0:0:0:0:
475,192,143267,1,0,0:0:0:0:
36,192,143354,1,2,0:0:0:0:
182,192,143354,1,8,0:0:0:0:
109,192,143354,1,8,0:0:0:0:
256,192,143529,1,0,0:0:0:0:
402,192,143529,1,0,0:0:0:0:
475,192,143529,1,0,0:0:0:0:
182,192,143616,1,0,0:0:0:0:
109,192,143703,1,0,0:0:0:0:
36,192,143703,1,0,0:0:0:0:
329,192,143703,1,2,0:0:0:0:
256,192,143878,1,0,0:0:0:0:
109,192,144052,128,0,144750:0:0:0:0:
475,192,144052,1,8,0:0:0:0:
182,192,144052,1,8,0:0:0:0:
402,192,144052,1,2,0:0:0:0:
329,192,144139,1,0,0:0:0:0:
256,192,144226,1,0,0:0:0:0:
329,192,144401,1,2,0:0:0:0:
475,192,144401,1,0,0:0:0:0:
182,192,144575,1,0,0:0:0:0:
329,192,144662,1,0,0:0:0:0:
36,192,144750,128,0,145098:0:0:0:0:
256,192,144750,1,2,0:0:0:0:
402,192,144750,1,8,0:0:0:0:
475,192,144750,1,8,0:0:0:0:
329,192,144924,1,0,0:0:0:0:
109,192,145098,1,2,0:0:0:0:
256,192,145098,1,0,0:0:0:0:
402,192,145098,1,0,0:0:0:0:
182,192,145273,1,0,0:0:0:0:
329,192,145273,1,0,0:0:0:0:
36,192,145447,1,8,0:0:0:0:
256,192,145447,1,2,0:0:0:0:
329,192,145447,1,8,0:0:0:0:
402,192,145534,1,0,0:0:0:0:
475,192,145534,1,0,0:0:0:0:
182,192,145622,1,0,0:0:0:0:
256,192,145796,1,0,0:0:0:0:
109,192,145796,1,0,0:0:0:0:
402,192,145796,1,2,0:0:0:0:
36,192,145971,1,0,0:0:0:0:
182,192,145971,1,0,0:0:0:0:
329,192,146058,1,0,0:0:0:0:
402,192,146058,1,0,0:0:0:0:
109,192,146145,1,8,0:0:0:0:
256,192,146145,1,8,0:0:0:0:
182,192,146145,1,2,0:0:0:0:
475,192,146319,1,0,0:0:0:0:
329,192,146319,1,0,0:0:0:0:
36,192,146494,1,0,0:0:0:0:
182,192,146494,1,0,0:0:0:0:
402,192,146494,1,2,0:0:0:0:
109,192,146668,1,0,0:0:0:0:
256,192,146668,1,0,0:0:0:0:
182,192,146843,1,2,0:0:0:0:
329,192,146843,1,8,0:0:0:0:
36,192,146843,1,8,0:0:0:0:
402,192,146930,1,0,0:0:0:0:
475,192,146930,1,0,0:0:0:0:
109,192,147017,1,0,0:0:0:0:
182,192,147191,1,0,0:0:0:0:
256,192,147191,1,2,0:0:0:0:
329,192,147191,1,0,0:0:0:0:
109,192,147366,1,0,0:0:0:0:
402,192,147366,1,0,0:0:0:0:
475,192,147453,1,0,0:0:0:0:
36,192,147540,1,8,0:0:0:0:
182,192,147540,1,2,0:0:0:0:
329,192,147540,1,8,0:0:0:0:
109,192,147715,1,0,0:0:0:50:crashL.wav
256,192,147715,1,2,0:0:0:0:
402,192,147715,1,0,0:0:0:50:crashR.wav
329,192,147715,1,0,0:0:0:0:
182,192,147889,1,0,0:0:0:0:
36,192,147889,1,0,0:0:0:0:
256,192,148064,1,0,0:0:0:0:
475,192,148064,1,0,0:0:0:0:
109,192,148238,1,8,0:0:0:0:
182,192,148238,1,2,0:0:0:0:
329,192,148238,1,8,0:0:0:0:
475,192,148325,1,0,0:0:0:0:
402,192,148325,1,0,0:0:0:0:
256,192,148412,1,0,0:0:0:0:
182,192,148587,1,0,0:0:0:0:
329,192,148587,1,2,0:0:0:0:
475,192,148587,1,0,0:0:0:0:
109,192,148761,1,0,0:0:0:0:
256,192,148761,1,0,0:0:0:0:
402,192,148761,1,0,0:0:0:0:
329,192,148936,1,8,0:0:0:0:
36,192,148936,1,8,0:0:0:0:
182,192,148936,1,2,0:0:0:0:
109,192,149110,1,2,0:0:0:0:
256,192,149110,1,0,0:0:0:50:crashR.wav
329,192,149110,1,0,0:0:0:0:
36,192,149110,1,0,0:0:0:0:
475,192,149284,1,0,0:0:0:0:
256,192,149459,1,0,0:0:0:0:
109,192,149459,1,2,0:0:0:0:
329,192,149459,1,0,0:0:0:0:
109,192,149633,1,2,0:0:0:0:
256,192,149633,1,8,0:0:0:0:
402,192,149633,1,8,0:0:0:0:
109,192,149808,1,2,0:0:0:0:
475,192,149808,1,0,0:0:0:0:
256,192,149808,128,0,150157:0:0:0:0:
36,192,150157,1,0,0:0:0:0:
182,192,150157,1,2,0:0:0:0:
402,192,150157,1,0,0:0:0:0:
36,192,150331,1,8,0:0:0:0:
182,192,150331,1,2,0:0:0:0:
475,192,150331,1,8,0:0:0:0:
109,192,150505,1,2,0:0:0:0:
402,192,150505,1,0,0:0:0:0:
182,192,150593,1,2,0:0:0:0:
329,192,150593,1,0,0:0:0:0:
256,192,150680,1,2,0:0:0:0:
36,192,150680,1,0,0:0:0:50:crashL.wav
475,192,150680,1,0,0:0:0:0:
109,192,150854,1,0,0:0:0:0:
329,192,150854,1,0,0:0:0:0:
182,192,150941,1,0,0:0:0:0:
256,192,151029,1,2,0:0:0:0:
36,192,151029,1,8,0:0:0:0:
329,192,151029,1,8,0:0:0:0:
402,192,151116,1,0,0:0:0:0:
475,192,151116,1,0,0:0:0:0:
109,192,151203,1,0,0:0:0:0:
182,192,151378,1,2,0:0:0:0:
36,192,151378,1,0,0:0:0:0:
329,192,151378,1,0,0:0:0:0:
256,192,151552,1,0,0:0:0:0:
109,192,151552,1,0,0:0:0:0:
329,192,151639,1,0,0:0:0:0:
402,192,151726,1,8,0:0:0:0:
36,192,151726,1,2,0:0:0:0:
182,192,151726,1,8,0:0:0:0:
475,192,151901,1,0,0:0:0:0:
329,192,151901,1,0,0:0:0:0:
256,192,152075,1,2,0:0:0:0:
402,192,152075,1,0,0:0:0:0:
182,192,152075,1,0,0:0:0:0:
36,192,152250,1,0,0:0:0:0:
109,192,152250,1,0,0:0:0:0:
182,192,152337,1,0,0:0:0:0:
329,192,152424,1,2,0:0:0:0:
475,192,152424,1,8,0:0:0:0:
256,192,152424,1,8,0:0:0:0:
36,192,152511,1,0,0:0:0:0:
182,192,152511,1,0,0:0:0:0:
402,192,152598,1,0,0:0:0:0:
36,192,152773,1,0,0:0:0:0:
182,192,152773,1,2,0:0:0:0:
329,192,152773,1,0,0:0:0:0:
109,192,152947,1,0,0:0:0:0:
256,192,152947,1,0,0:0:0:0:
402,192,152947,1,0,0:0:0:0:
182,192,153122,1,8,0:0:0:0:
329,192,153122,1,2,0:0:0:0:
475,192,153122,1,8,0:0:0:0:
36,192,153296,1,0,0:0:0:0:
109,192,153296,1,0,0:0:0:0:
402,192,153296,1,0,0:0:0:0:
475,192,153296,1,0,0:0:0:0:
256,192,153471,1,2,0:0:0:0:
182,192,153471,1,0,0:0:0:0:
329,192,153471,1,0,0:0:0:0:
36,192,153645,1,0,0:0:0:0:
402,192,153645,1,0,0:0:0:0:
109,192,153819,1,8,0:0:0:0:
256,192,153819,1,2,0:0:0:0:
329,192,153819,1,8,0:0:0:0:
475,192,153907,1,0,0:0:0:0:
402,192,153907,1,0,0:0:0:0:
182,192,153994,1,0,0:0:0:0:
109,192,154168,1,0,0:0:0:0:
256,192,154168,1,0,0:0:0:0:
475,192,154168,1,2,0:0:0:0:
182,192,154343,1,0,0:0:0:0:
329,192,154343,1,0,0:0:0:0:
109,192,154517,1,8,0:0:0:0:
256,192,154517,1,2,0:0:0:0:
402,192,154517,1,8,0:0:0:0:
329,192,154691,1,0,0:0:0:0:
36,192,154691,1,0,0:0:0:0:
182,192,154691,128,0,155215:0:0:0:0:
402,192,154866,1,2,0:0:0:0:
475,192,154866,1,0,0:0:0:0:
36,192,154866,1,0,0:0:0:0:
256,192,155040,1,0,0:0:0:0:
402,192,155040,1,0,0:0:0:0:
109,192,155215,1,2,0:0:0:0:
329,192,155215,1,8,0:0:0:0:
475,192,155215,1,8,0:0:0:0:
256,192,155302,1,0,0:0:0:0:
182,192,155389,1,0,0:0:0:0:
36,192,155389,1,0,0:0:0:0:
109,192,155564,1,0,0:0:0:0:
329,192,155564,1,2,0:0:0:0:
402,192,155564,128,0,155912:0:0:0:0:
256,192,155738,1,0,0:0:0:0:
475,192,155912,128,2,156261:0:0:0:0:
329,192,155912,1,8,0:0:0:0:
182,192,155912,1,8,0:0:0:0:
109,192,156087,1,0,0:0:0:0:
182,192,156261,1,4,0:0:0:0:
36,192,156261,1,2,0:0:0:0:
256,192,156261,1,4,0:0:0:0:
402,192,156261,1,0,0:0:0:0:
36,192,156436,1,0,0:0:0:0:
329,192,156436,1,0,0:0:0:0:
109,192,156610,1,0,0:0:0:0:
402,192,156610,1,0,0:0:0:0:
182,192,156784,1,2,0:0:0:0:
36,192,156784,1,0,0:0:0:0:
329,192,156784,1,0,0:0:0:0:
475,192,156784,128,0,157133:0:0:0:0:
36,192,157133,1,2,0:0:0:0:
256,192,157133,1,0,0:0:0:0:
329,192,157133,1,0,0:0:0:0:
109,192,157308,1,2,0:0:0:0:
329,192,157308,1,0,0:0:0:0:
402,192,157308,1,0,0:0:0:0:
182,192,157482,1,2,0:0:0:0:
402,192,157482,1,4,0:0:0:0:
475,192,157482,128,0,157831:0:0:0:0:
256,192,157482,1,4,0:0:0:0:
36,192,157831,1,0,0:0:0:0:
109,192,157831,1,2,0:0:0:0:
329,192,157831,1,0,0:0:0:0:
182,192,158005,1,2,0:0:0:0:
402,192,158005,1,0,0:0:0:0:
109,192,158005,1,0,0:0:0:0:
329,192,158180,1,4,0:0:0:0:
256,192,158180,1,2,0:0:0:0:
475,192,158180,128,0,158529:0:0:0:0:
182,192,158180,1,4,0:0:0:0:
36,192,158529,1,0,0:0:0:0:
182,192,158529,1,2,0:0:0:0:
109,192,158529,1,0,0:0:0:0:
402,192,158616,1,0,0:0:0:0:
329,192,158616,1,2,0:0:0:0:
256,192,158703,1,2,0:0:0:0:
109,192,158703,1,0,0:0:0:0:
182,192,158703,1,0,0:0:0:0:
256,192,158878,1,2,0:0:0:0:
475,192,158878,1,4,0:0:0:0:
402,192,158878,1,4,0:0:0:0:
36,192,158878,128,0,159226:0:0:0:0:
256,192,159226,1,0,0:0:0:0:
329,192,159226,1,0,0:0:0:0:
475,192,159226,1,2,0:0:0:0:
182,192,159401,1,0,0:0:0:0:
256,192,159401,1,0,0:0:0:0:
402,192,159401,1,2,0:0:0:0:
109,192,159575,1,4,0:0:0:0:
182,192,159575,1,4,0:0:0:0:
329,192,159575,1,2,0:0:0:0:
36,192,159575,128,0,159924:0:0:0:0:
109,192,159924,1,0,0:0:0:0:
256,192,159924,1,2,0:0:0:0:
402,192,159924,1,0,0:0:0:0:
182,192,160098,1,0,0:0:0:0:
329,192,160098,1,2,0:0:0:0:
475,192,160098,1,0,0:0:0:0:
402,192,160273,1,2,0:0:0:0:
36,192,160273,1,4,0:0:0:0:
475,192,160273,128,0,160622:0:0:0:0:
109,192,160273,1,4,0:0:0:0:
182,192,160622,1,0,0:0:0:0:
329,192,160622,1,0,0:0:0:0:
402,192,160622,1,2,0:0:0:0:
36,192,160796,1,0,0:0:0:0:
182,192,160796,1,0,0:0:0:0:
329,192,160796,1,2,0:0:0:0:
109,192,160971,1,4,0:0:0:0:
402,192,160971,1,2,0:0:0:0:
475,192,160971,1,4,0:0:0:0:
256,192,160971,128,0,161319:0:0:0:0:
36,192,161319,1,0,0:0:0:0:
182,192,161319,1,0,0:0:0:0:
475,192,161319,1,2,0:0:0:0:
109,192,161494,1,0,0:0:0:0:
256,192,161494,1,0,0:0:0:0:
402,192,161494,1,2,0:0:0:0:
182,192,161668,1,2,0:0:0:0:
329,192,161668,1,0,0:0:0:0:
402,192,161755,1,0,0:0:0:0:
109,192,161755,1,2,0:0:0:0:
36,192,161843,1,0,0:0:0:50:crashL.wav
475,192,161843,1,0,0:0:0:0:
256,192,161843,1,2,0:0:0:0:
182,192,162017,1,0,0:0:0:0:
329,192,162017,1,0,0:0:0:0:
256,192,162191,1,2,0:0:0:0:
475,192,162191,1,8,0:0:0:0:
36,192,162191,1,8,0:0:0:0:
109,192,162279,1,0,0:0:0:0:
182,192,162366,1,0,0:0:0:0:
402,192,162366,1,0,0:0:0:0:
256,192,162453,1,0,0:0:0:0:
109,192,162540,1,0,0:0:0:0:
329,192,162540,1,2,0:0:0:0:
475,192,162540,1,0,0:0:0:0:
182,192,162628,1,0,0:0:0:0:
256,192,162715,1,0,0:0:0:0:
36,192,162715,1,0,0:0:0:0:
329,192,162802,1,0,0:0:0:0:
182,192,162889,1,2,0:0:0:0:
109,192,162889,1,8,0:0:0:0:
402,192,162889,1,8,0:0:0:0:
256,192,162976,1,0,0:0:0:0:
329,192,163064,1,0,0:0:0:0:
36,192,163064,1,0,0:0:0:0:
402,192,163151,1,0,0:0:0:0:
475,192,163238,1,0,0:0:0:0:
109,192,163238,1,2,0:0:0:0:
182,192,163238,1,0,0:0:0:0:
402,192,163325,1,0,0:0:0:0:
329,192,163412,1,0,0:0:0:0:
36,192,163412,1,0,0:0:0:0:
256,192,163500,1,0,0:0:0:0:
402,192,163587,1,2,0:0:0:0:
475,192,163587,1,8,0:0:0:0:
182,192,163587,1,8,0:0:0:0:
329,192,163674,1,0,0:0:0:0:
256,192,163761,1,0,0:0:0:0:
36,192,163761,1,0,0:0:0:0:
182,192,163848,1,0,0:0:0:0:
329,192,163936,1,2,0:0:0:0:
109,192,163936,1,0,0:0:0:0:
475,192,163936,1,0,0:0:0:0:
256,192,164023,1,0,0:0:0:0:
182,192,164110,1,0,0:0:0:0:
402,192,164110,1,0,0:0:0:0:
109,192,164197,1,0,0:0:0:0:
256,192,164284,1,2,0:0:0:0:
36,192,164284,1,8,0:0:0:0:
329,192,164284,1,8,0:0:0:0:
182,192,164372,1,0,0:0:0:0:
109,192,164459,1,0,0:0:0:0:
402,192,164459,1,0,0:0:0:0:
475,192,164459,1,0,0:0:0:0:
182,192,164633,1,2,0:0:0:0:
36,192,164633,1,0,0:0:0:0:
329,192,164721,1,0,0:0:0:0:
182,192,164808,1,0,0:0:0:0:
329,192,164895,1,0,0:0:0:0:
36,192,164982,1,8,0:0:0:0:
475,192,164982,1,8,0:0:0:0:
256,192,164982,1,2,0:0:0:0:
402,192,165069,1,0,0:0:0:0:
182,192,165069,1,0,0:0:0:0:
109,192,165157,1,0,0:0:0:0:
329,192,165157,1,0,0:0:0:0:
475,192,165244,1,0,0:0:0:0:
36,192,165244,1,0,0:0:0:0:
182,192,165331,1,0,0:0:0:0:
109,192,165331,1,0,0:0:0:0:
256,192,165331,1,2,0:0:0:0:
329,192,165418,1,0,0:0:0:0:
402,192,165418,1,0,0:0:0:0:
36,192,165505,1,0,0:0:0:0:
182,192,165505,1,0,0:0:0:0:
329,192,165593,1,0,0:0:0:0:
475,192,165593,1,0,0:0:0:0:
36,192,165680,1,8,0:0:0:0:
182,192,165680,1,8,0:0:0:0:
109,192,165680,1,2,0:0:0:0:
329,192,165767,1,0,0:0:0:0:
475,192,165767,1,0,0:0:0:0:
36,192,165854,1,0,0:0:0:0:
182,192,165854,1,0,0:0:0:0:
109,192,165854,1,2,0:0:0:0:
402,192,165941,1,0,0:0:0:0:
256,192,165941,1,0,0:0:0:0:
36,192,166029,1,0,0:0:0:0:
109,192,166029,1,0,0:0:0:0:
182,192,166116,1,0,0:0:0:0:
329,192,166116,1,0,0:0:0:0:
475,192,166203,1,0,0:0:0:0:
402,192,166203,1,2,0:0:0:0:
36,192,166203,1,0,0:0:0:0:
109,192,166290,1,0,0:0:0:0:
256,192,166290,1,0,0:0:0:0:
329,192,166378,1,8,0:0:0:0:
402,192,166378,1,2,0:0:0:0:
475,192,166378,1,8,0:0:0:0:
36,192,166465,1,0,0:0:0:0:
182,192,166465,1,0,0:0:0:0:
109,192,166552,1,0,0:0:0:0:
256,192,166552,1,0,0:0:0:0:
402,192,166552,1,2,0:0:0:0:
475,192,166639,1,0,0:0:0:0:
329,192,166639,1,0,0:0:0:0:
36,192,166726,1,0,0:0:0:0:
109,192,166726,1,0,0:0:0:0:
402,192,166726,1,2,0:0:0:0:
182,192,166770,1,0,0:0:0:0:
256,192,166814,1,0,0:0:0:0:
329,192,166857,1,0,0:0:0:0:
402,192,166901,1,2,0:0:0:0:
475,192,166901,1,0,0:0:0:0:
36,192,166901,1,0,0:0:0:0:
109,192,166988,1,0,0:0:0:0:
182,192,166988,1,0,0:0:0:0:
402,192,167075,1,2,0:0:0:0:
475,192,167075,1,8,0:0:0:0:
36,192,167075,1,8,0:0:0:0:
329,192,167119,1,0,0:0:0:0:
256,192,167162,1,0,0:0:0:0:
182,192,167206,1,0,0:0:0:0:
36,192,167250,1,0,0:0:0:0:
109,192,167250,1,2,0:0:0:0:
329,192,167337,1,2,0:0:0:0:
402,192,167337,1,0,0:0:0:0:
475,192,167337,1,0,0:0:0:0:
182,192,167424,1,0,0:0:0:0:
109,192,167424,1,0,0:0:0:0:
36,192,167424,1,0,0:0:0:50:crashL.wav
329,192,167424,1,2,0:0:0:0:
402,192,167424,1,0,0:0:0:0:
475,192,167424,1,0,0:0:0:50:crashR.wav
109,192,167686,1,0,0:0:0:0:
402,192,167686,1,0,0:0:0:0:
182,192,167947,1,0,0:0:0:0:
475,192,167947,1,0,0:0:0:0:
182,192,168296,1,0,0:0:0:0:
475,192,168296,1,0,0:0:0:0:
109,192,168471,1,0,0:0:0:0:
402,192,168471,1,0,0:0:0:0:
36,192,168645,1,0,0:0:0:0:
329,192,168645,1,0,0:0:0:0:
475,192,168819,1,0,0:0:0:0:
256,192,168819,1,0,0:0:0:0:
402,192,168994,1,0,0:0:0:0:
182,192,168994,1,0,0:0:0:0:
329,192,169168,1,0,0:0:0:0:
109,192,169168,1,0,0:0:0:0:
256,192,169343,1,0,0:0:0:0:
36,192,169343,1,0,0:0:0:0:
182,192,169517,1,0,0:0:0:0:
109,192,169517,1,0,0:0:0:0:
402,192,169604,1,0,0:0:0:0:
475,192,169604,1,0,0:0:0:0:
36,192,169691,1,0,0:0:0:0:
182,192,169691,1,4,0:0:0:0:
109,192,169691,1,0,0:0:0:0:
256,192,169691,1,2,0:0:0:0:
329,192,169691,1,4,0:0:0:0:
475,192,169779,1,0,0:0:0:0:
402,192,169779,1,0,0:0:0:0:
36,192,170040,1,0,0:0:0:0:
182,192,170040,1,4,0:0:0:0:
256,192,170040,1,2,0:0:0:0:
329,192,170040,1,4,0:0:0:0:
475,192,170040,1,0,0:0:0:0:
109,192,170215,1,4,0:0:0:0:
402,192,170215,1,4,0:0:0:0:
36,192,170215,1,0,0:0:0:0:
475,192,170215,1,0,0:0:0:0:
256,192,170215,1,2,0:0:0:0:
182,192,170476,1,0,0:0:0:0:
36,192,170476,1,0,0:0:0:0:
329,192,170738,1,0,0:0:0:0:
475,192,170738,1,0,0:0:0:0:
402,192,171087,1,0,0:0:0:0:
182,192,171087,1,0,0:0:0:0:
256,192,171261,1,0,0:0:0:0:
36,192,171261,1,0,0:0:0:0:
109,192,171436,1,0,0:0:0:0:
329,192,171436,1,2,0:0:0:0:
402,192,171494,1,2,0:0:0:0:
475,192,171552,1,2,0:0:0:0:
182,192,171610,1,4,0:0:0:0:
256,192,171610,1,2,0:0:0:0:
36,192,171610,1,0,0:0:0:0:
329,192,171610,1,4,0:0:0:0:
109,192,171610,1,0,0:0:0:0:
182,192,171784,1,0,0:0:0:0:
402,192,171784,1,0,0:0:0:0:
109,192,171959,1,0,0:0:0:0:
329,192,171959,1,0,0:0:0:0:
182,192,172133,1,0,0:0:0:0:
402,192,172133,1,0,0:0:0:0:
36,192,172308,1,0,0:0:0:0:
109,192,172308,1,4,0:0:0:0:
256,192,172308,1,2,0:0:0:0:
402,192,172308,1,4,0:0:0:0:
475,192,172308,1,0,0:0:0:0:
182,192,172395,1,0,0:0:0:0:
329,192,172395,1,0,0:0:0:0:
256,192,172569,1,2,0:0:0:0:
329,192,172569,1,4,0:0:0:0:
182,192,172569,1,4,0:0:0:0:
36,192,172569,1,0,0:0:0:0:
475,192,172569,1,0,0:0:0:0:
109,192,172831,1,0,0:0:0:0:
182,192,172831,1,4,0:0:0:0:
256,192,172831,1,2,0:0:0:0:
329,192,172831,1,4,0:0:0:0:
402,192,172831,1,0,0:0:0:0:
36,192,173005,1,0,0:0:0:0:
109,192,173005,1,4,0:0:0:0:
256,192,173005,1,2,0:0:0:0:
402,192,173005,1,4,0:0:0:0:
475,192,173005,1,0,0:0:0:0:
109,192,173267,1,0,0:0:0:0:
182,192,173267,1,0,0:0:0:0:
329,192,173529,1,0,0:0:0:0:
475,192,173529,1,0,0:0:0:0:
329,192,173878,1,0,0:0:0:0:
475,192,173878,1,0,0:0:0:0:
402,192,174052,1,0,0:0:0:0:
256,192,174052,1,0,0:0:0:0:
329,192,174226,1,0,0:0:0:0:
182,192,174226,1,0,0:0:0:0:
402,192,174401,1,0,0:0:0:0:
256,192,174401,1,0,0:0:0:0:
329,192,174575,1,0,0:0:0:0:
182,192,174575,1,0,0:0:0:0:
256,192,174750,1,0,0:0:0:0:
109,192,174750,1,0,0:0:0:0:
182,192,174924,1,0,0:0:0:0:
36,192,174924,1,0,0:0:0:0:
109,192,175098,1,0,0:0:0:0:
329,192,175098,1,0,0:0:0:0:
182,192,175186,1,0,0:0:0:0:
402,192,175186,1,0,0:0:0:0:
109,192,175360,1,0,0:0:0:0:
329,192,175360,1,0,0:0:0:0:
36,192,175622,1,0,0:0:0:0:
256,192,175622,1,0,0:0:0:0:
182,192,175796,1,0,0:0:0:0:
36,192,175796,1,2,0:0:0:0:
402,192,175796,1,0,0:0:0:0:
475,192,175796,128,0,177191:0:0:0:0:
109,192,175796,128,0,177104:0:0:0:0:
256,192,175971,1,0,0:0:0:0:
329,192,176145,1,0,0:0:0:0:
402,192,176145,1,0,0:0:0:0:
256,192,176319,1,0,0:0:0:0:
182,192,176494,1,0,0:0:0:0:
256,192,176668,1,0,0:0:0:0:
329,192,176843,1,0,0:0:0:0:
402,192,176843,1,0,0:0:0:0:
256,192,177017,1,0,0:0:0:0:
329,192,177104,1,0,0:0:0:0:
182,192,177191,1,0,0:0:0:0:
256,192,177191,1,2,0:0:0:0:
36,192,177191,128,0,178587:0:0:0:0:
402,192,177191,128,0,177889:0:0:0:0:
109,192,177191,1,0,0:0:0:0:
475,192,177366,1,0,0:0:0:0:
182,192,177540,1,0,0:0:0:0:
329,192,177540,1,0,0:0:0:0:
256,192,177715,1,0,0:0:0:0:
329,192,177889,128,0,178500:0:0:0:0:
109,192,177889,1,0,0:0:0:0:
182,192,178064,128,0,178238:0:0:0:0:
402,192,178238,1,0,0:0:0:0:
475,192,178238,1,0,0:0:0:0:
256,192,178325,1,0,0:0:0:0:
182,192,178412,1,0,0:0:0:0:
109,192,178500,1,0,0:0:0:0:
402,192,178587,1,0,0:0:0:0:
475,192,178587,1,0,0:0:0:0:
256,192,178587,1,2,0:0:0:0:
182,192,178587,1,0,0:0:0:50:crashL.wav
329,192,178587,1,0,0:0:0:50:crashR.wav
182,192,178848,1,0,0:0:0:0:
36,192,178848,1,0,0:0:0:0:
256,192,179110,1,0,0:0:0:0:
475,192,179110,1,0,0:0:0:0:
182,192,179459,1,0,0:0:0:0:
402,192,179459,1,0,0:0:0:0:
109,192,179633,1,0,0:0:0:0:
329,192,179633,1,0,0:0:0:0:
256,192,179808,1,0,0:0:0:0:
36,192,179808,1,0,0:0:0:0:
475,192,179982,1,0,0:0:0:0:
109,192,179982,1,0,0:0:0:0:
402,192,180157,1,0,0:0:0:0:
182,192,180157,1,0,0:0:0:0:
329,192,180331,1,0,0:0:0:0:
36,192,180331,1,0,0:0:0:0:
256,192,180505,1,0,0:0:0:0:
109,192,180505,1,0,0:0:0:0:
182,192,180680,1,0,0:0:0:0:
329,192,180680,1,0,0:0:0:0:
256,192,180767,1,0,0:0:0:0:
402,192,180767,1,0,0:0:0:0:
36,192,180854,1,2,0:0:0:0:
109,192,180854,1,0,0:0:0:0:
182,192,180854,1,4,0:0:0:0:
329,192,180854,1,4,0:0:0:0:
475,192,180854,1,0,0:0:0:0:
256,192,180941,1,0,0:0:0:0:
402,192,180941,1,0,0:0:0:0:
109,192,181203,1,4,0:0:0:0:
182,192,181203,1,0,0:0:0:0:
329,192,181203,1,0,0:0:0:0:
402,192,181203,1,4,0:0:0:0:
256,192,181203,1,2,0:0:0:0:
109,192,181378,1,4,0:0:0:0:
36,192,181378,1,0,0:0:0:0:
256,192,181378,1,2,0:0:0:0:
402,192,181378,1,4,0:0:0:0:
475,192,181378,1,0,0:0:0:0:
36,192,181639,1,0,0:0:0:0:
109,192,181639,1,0,0:0:0:0:
402,192,181901,1,0,0:0:0:0:
475,192,181901,1,0,0:0:0:0:
256,192,182250,1,0,0:0:0:0:
182,192,182250,1,0,0:0:0:0:
109,192,182424,1,0,0:0:0:0:
36,192,182424,1,0,0:0:0:0:
182,192,182598,1,2,0:0:0:0:
329,192,182598,1,0,0:0:0:0:
402,192,182657,1,2,0:0:0:0:
109,192,182715,1,2,0:0:0:0:
36,192,182773,1,6,0:0:0:0:
475,192,182773,1,4,0:0:0:0:
182,192,182773,1,0,0:0:0:0:
256,192,182773,1,0,0:0:0:0:
329,192,182773,1,0,0:0:0:0:
109,192,182947,1,0,0:0:0:0:
402,192,182947,1,0,0:0:0:0:
182,192,183122,1,0,0:0:0:0:
329,192,183122,1,0,0:0:0:0:
109,192,183296,1,0,0:0:0:0:
402,192,183296,1,0,0:0:0:0:
182,192,183471,1,0,0:0:0:0:
256,192,183471,1,2,0:0:0:0:
329,192,183471,1,0,0:0:0:0:
109,192,183471,1,4,0:0:0:0:
402,192,183471,1,4,0:0:0:0:
475,192,183558,1,0,0:0:0:0:
36,192,183558,1,0,0:0:0:0:
109,192,183732,1,0,0:0:0:0:
182,192,183732,1,4,0:0:0:0:
256,192,183732,1,2,0:0:0:0:
329,192,183732,1,4,0:0:0:0:
402,192,183732,1,0,0:0:0:0:
36,192,183994,1,0,0:0:0:0:
109,192,183994,1,4,0:0:0:0:
256,192,183994,1,2,0:0:0:0:
402,192,183994,1,4,0:0:0:0:
475,192,183994,1,0,0:0:0:0:
475,192,184168,1,0,0:0:0:0:
329,192,184168,1,4,0:0:0:0:
256,192,184168,1,2,0:0:0:0:
182,192,184168,1,4,0:0:0:0:
36,192,184168,1,0,0:0:0:0:
109,192,184430,1,0,0:0:0:0:
329,192,184430,1,0,0:0:0:0:
402,192,184691,1,0,0:0:0:0:
182,192,184691,1,0,0:0:0:0:
329,192,185040,1,0,0:0:0:0:
475,192,185040,1,0,0:0:0:0:
109,192,185215,1,0,0:0:0:0:
36,192,185215,1,0,0:0:0:0:
256,192,185389,1,0,0:0:0:0:
402,192,185389,1,0,0:0:0:0:
36,192,185564,1,0,0:0:0:0:
182,192,185564,1,0,0:0:0:0:
402,192,185738,1,0,0:0:0:0:
475,192,185738,1,0,0:0:0:0:
109,192,185912,1,0,0:0:0:0:
36,192,185912,1,0,0:0:0:0:
329,192,186087,1,0,0:0:0:0:
475,192,186087,1,0,0:0:0:0:
182,192,186261,1,0,0:0:0:0:
329,192,186261,1,0,0:0:0:0:
109,192,186348,1,0,0:0:0:0:
402,192,186348,1,0,0:0:0:0:
182,192,186523,1,0,0:0:0:0:
329,192,186523,1,0,0:0:0:0:
36,192,186784,1,0,0:0:0:0:
475,192,186784,1,0,0:0:0:0:
109,192,186959,1,2,0:0:0:0:
182,192,186959,1,4,0:0:0:0:
329,192,186959,1,4,0:0:0:0:
402,192,186959,1,2,0:0:0:0:
256,192,186959,1,0,0:0:0:0:
475,192,187090,1,0,0:0:0:0:
402,192,187373,1,0,0:0:0:0:
182,192,187460,1,0,0:0:0:0:
329,192,187657,1,0,0:0:0:0:
109,192,187744,1,0,0:0:0:0:
256,192,187918,1,0,0:0:0:0:
36,192,187984,1,0,0:0:0:0:
402,192,188180,1,0,0:0:0:0:
36,192,188180,1,0,0:0:0:0:
256,192,188267,1,0,0:0:0:0:
109,192,188267,1,0,0:0:0:0:
182,192,188354,1,4,0:0:0:0:
329,192,188354,1,4,0:0:0:0:
475,192,188354,1,2,0:0:0:0:
36,192,188354,1,2,0:0:0:0:
402,192,188354,1,0,0:0:0:0:
256,192,188500,1,0,0:0:0:0:
475,192,188558,1,0,0:0:0:0:
182,192,188616,1,0,0:0:0:0:
402,192,188703,1,0,0:0:0:0:
256,192,188812,1,0,0:0:0:0:
329,192,188834,1,0,0:0:0:0:
402,192,188856,1,0,0:0:0:0:
475,192,188878,1,0,0:0:0:0:
109,192,188943,1,0,0:0:0:0:
36,192,188965,1,0,0:0:0:0:
475,192,188994,1,0,0:0:0:0:
402,192,189023,1,0,0:0:0:0:
329,192,189052,1,0,0:0:0:0:
256,192,189081,1,0,0:0:0:0:
182,192,189110,1,0,0:0:0:0:
109,192,189139,1,0,0:0:0:0:
36,192,189161,1,0,0:0:0:0:
475,192,189226,1,0,0:0:0:0:
402,192,189226,1,0,0:0:0:0:
182,192,189357,1,0,0:0:0:0:
329,192,189401,1,2,0:0:0:0:
475,192,189401,1,0,0:0:0:0:
109,192,189401,1,0,0:0:0:0:
402,192,189488,1,0,0:0:0:0:
256,192,189488,1,2,0:0:0:0:
36,192,189488,1,0,0:0:0:0:
475,192,189575,1,0,0:0:0:0:
329,192,189575,1,0,0:0:0:0:
182,192,189575,1,2,0:0:0:0:
109,192,189662,1,2,0:0:0:0:
256,192,189662,1,0,0:0:0:0:
402,192,189662,1,0,0:0:0:0:
475,192,189750,1,4,0:0:0:0:
329,192,189750,1,4,0:0:0:0:
182,192,189750,1,2,0:0:0:0:
36,192,189750,1,2,0:0:0:0:
329,192,190011,1,0,0:0:0:0:
36,192,190098,1,2,0:0:0:0:
182,192,190098,1,8,0:0:0:0:
109,192,190098,1,8,0:0:0:0:
475,192,190273,1,0,0:0:0:0:
36,192,190447,1,2,0:0:0:0:
182,192,190447,1,0,0:0:0:0:
475,192,190622,1,0,0:0:0:0:
36,192,190796,1,2,0:0:0:0:
182,192,190796,1,8,0:0:0:0:
402,192,190796,1,0,0:0:0:0:
109,192,190796,1,8,0:0:0:0:
329,192,190971,1,0,0:0:0:0:
182,192,191145,1,0,0:0:0:0:
36,192,191145,1,2,0:0:0:0:
475,192,191145,1,0,0:0:0:0:
402,192,191319,1,0,0:0:0:0:
36,192,191494,1,2,0:0:0:0:
182,192,191494,1,8,0:0:0:0:
329,192,191494,1,0,0:0:0:0:
109,192,191494,1,8,0:0:0:0:
256,192,191668,1,0,0:0:0:0:
109,192,191668,1,0,0:0:0:0:
36,192,191843,1,2,0:0:0:0:
182,192,191843,1,0,0:0:0:0:
329,192,191843,1,0,0:0:0:0:
475,192,191930,1,0,0:0:0:0:
402,192,192104,1,0,0:0:0:0:
256,192,192104,1,0,0:0:0:0:
182,192,192191,1,8,0:0:0:0:
36,192,192191,1,2,0:0:0:0:
109,192,192191,1,8,0:0:0:0:
329,192,192366,1,0,0:0:0:0:
256,192,192540,1,2,0:0:0:0:
109,192,192540,1,0,0:0:0:0:
402,192,192540,1,0,0:0:0:0:
109,192,192802,1,0,0:0:0:0:
329,192,192889,1,8,0:0:0:0:
475,192,192889,1,2,0:0:0:0:
402,192,192889,1,8,0:0:0:0:
182,192,193064,1,0,0:0:0:0:
475,192,193238,1,2,0:0:0:0:
329,192,193238,1,0,0:0:0:0:
182,192,193412,1,0,0:0:0:0:
475,192,193587,1,2,0:0:0:0:
329,192,193587,1,8,0:0:0:0:
109,192,193587,1,0,0:0:0:0:
402,192,193587,1,8,0:0:0:0:
182,192,193761,1,0,0:0:0:0:
329,192,193936,1,0,0:0:0:0:
475,192,193936,1,2,0:0:0:0:
256,192,193936,1,0,0:0:0:0:
109,192,194110,1,0,0:0:0:0:
329,192,194284,1,8,0:0:0:0:
475,192,194284,1,2,0:0:0:0:
36,192,194284,1,0,0:0:0:0:
402,192,194284,1,8,0:0:0:0:
109,192,194459,1,0,0:0:0:0:
475,192,194633,1,2,0:0:0:0:
329,192,194633,1,0,0:0:0:0:
36,192,194633,1,0,0:0:0:0:
182,192,194721,1,0,0:0:0:0:
109,192,194895,1,0,0:0:0:0:
256,192,194895,1,2,0:0:0:0:
329,192,194982,1,8,0:0:0:0:
475,192,194982,1,8,0:0:0:0:
402,192,194982,1,0,0:0:0:0:
36,192,195157,1,0,0:0:0:0:
256,192,195157,1,2,0:0:0:0:
109,192,195331,1,0,0:0:0:0:
402,192,195331,1,2,0:0:0:0:
182,192,195331,1,0,0:0:0:0:
182,192,195593,1,0,0:0:0:0:
109,192,195680,1,8,0:0:0:0:
402,192,195680,1,2,0:0:0:0:
329,192,195680,1,8,0:0:0:0:
475,192,195854,1,0,0:0:0:0:
402,192,196029,1,2,0:0:0:0:
109,192,196029,1,0,0:0:0:0:
329,192,196203,1,0,0:0:0:0:
109,192,196378,1,8,0:0:0:0:
402,192,196378,1,2,0:0:0:0:
256,192,196378,1,8,0:0:0:0:
36,192,196378,1,0,0:0:0:0:
182,192,196552,1,0,0:0:0:0:
402,192,196726,1,2,0:0:0:0:
109,192,196726,1,0,0:0:0:0:
329,192,196726,1,0,0:0:0:0:
256,192,196901,1,0,0:0:0:0:
109,192,197075,1,8,0:0:0:0:
402,192,197075,1,2,0:0:0:0:
182,192,197075,1,8,0:0:0:0:
475,192,197075,1,0,0:0:0:0:
36,192,197250,1,0,0:0:0:0:
329,192,197424,1,2,0:0:0:0:
109,192,197424,1,0,0:0:0:0:
182,192,197424,1,0,0:0:0:0:
402,192,197511,1,0,0:0:0:0:
182,192,197686,1,0,0:0:0:0:
109,192,197773,1,2,0:0:0:0:
402,192,197773,1,8,0:0:0:0:
329,192,197773,1,8,0:0:0:0:
182,192,197947,1,0,0:0:0:0:
36,192,198122,128,0,198296:0:0:0:0:
329,192,198122,128,0,198296:0:0:0:0:
475,192,198122,1,2,0:0:0:0:
182,192,198122,1,0,0:0:0:0:
36,192,198383,128,0,198471:0:0:0:0:
329,192,198383,128,0,198471:0:0:0:0:
182,192,198645,128,0,198819:0:0:0:0:
475,192,198645,128,0,198819:0:0:0:0:
182,192,198994,128,0,199168:0:0:0:0:
475,192,198994,128,0,199168:0:0:0:0:
36,192,199168,128,2,199343:0:0:0:0:
329,192,199168,128,8,199343:0:0:0:0:
109,192,199343,128,0,199517:0:0:0:0:
402,192,199343,128,0,199517:0:0:0:0:
182,192,199517,128,0,199691:0:0:0:0:
475,192,199517,128,0,199691:0:0:0:0:
256,192,199517,1,2,0:0:0:0:
329,192,199604,1,8,0:0:0:0:
402,192,199691,128,0,199866:0:0:0:0:
109,192,199691,128,0,199866:0:0:0:0:
256,192,199691,1,0,0:0:0:0:
36,192,199866,128,0,200040:0:0:0:0:
329,192,199866,128,0,200040:0:0:0:0:
256,192,199866,1,2,0:0:0:0:
182,192,199953,1,8,0:0:0:0:
402,192,200040,128,0,200215:0:0:0:0:
109,192,200040,128,0,200215:0:0:0:0:
256,192,200040,1,0,0:0:0:0:
36,192,200215,1,0,0:0:0:0:
475,192,200215,1,2,0:0:0:0:
256,192,200215,1,2,0:0:0:0:
329,192,200302,1,0,0:0:0:0:
182,192,200302,1,0,0:0:0:0:
402,192,200389,1,0,0:0:0:0:
36,192,200389,1,0,0:0:0:0:
475,192,200476,1,2,0:0:0:0:
256,192,200476,1,2,0:0:0:0:
109,192,200476,1,0,0:0:0:0:
329,192,200564,1,0,0:0:0:0:
402,192,200651,1,0,0:0:0:0:
475,192,200738,1,2,0:0:0:0:
36,192,200738,1,0,0:0:0:0:
182,192,200738,1,2,0:0:0:0:
256,192,200825,1,0,0:0:0:0:
36,192,200912,1,0,0:0:0:55:crashL.wav
109,192,200912,1,2,0:0:0:0:
329,192,200912,1,0,0:0:0:0:
402,192,200912,1,2,0:0:0:0:
475,192,200912,1,0,0:0:0:55:crashR.wav
182,192,200971,1,0,0:0:0:0:
256,192,201029,1,0,0:0:0:0:
329,192,201087,1,0,0:0:0:0:
402,192,201145,1,0,0:0:0:0:
475,192,201203,1,0,0:0:0:0:
36,192,201261,1,2,0:0:0:0:
329,192,201261,1,8,0:0:0:0:
256,192,201261,1,8,0:0:0:0:
109,192,201319,1,0,0:0:0:0:
182,192,201378,1,0,0:0:0:0:
256,192,201436,1,0,0:0:0:0:
329,192,201494,1,0,0:0:0:0:
402,192,201552,1,0,0:0:0:0:
475,192,201610,1,0,0:0:0:0:
36,192,201610,1,2,0:0:0:0:
109,192,201610,1,0,0:0:0:0:
402,192,201668,1,0,0:0:0:0:
329,192,201726,1,0,0:0:0:0:
256,192,201784,1,0,0:0:0:0:
182,192,201843,1,0,0:0:0:0:
109,192,201901,1,0,0:0:0:0:
402,192,201959,1,8,0:0:0:0:
36,192,201959,1,2,0:0:0:0:
475,192,201959,1,8,0:0:0:0:
329,192,202017,1,0,0:0:0:0:
256,192,202075,1,0,0:0:0:0:
182,192,202133,1,0,0:0:0:0:
109,192,202191,1,0,0:0:0:0:
36,192,202250,1,0,0:0:0:0:
329,192,202308,1,0,0:0:0:0:
475,192,202308,1,2,0:0:0:0:
402,192,202308,1,0,0:0:0:0:
36,192,202366,1,0,0:0:0:0:
109,192,202424,1,0,0:0:0:0:
182,192,202482,1,0,0:0:0:0:
256,192,202540,1,0,0:0:0:0:
329,192,202598,1,0,0:0:0:0:
402,192,202657,1,8,0:0:0:0:
475,192,202657,1,8,0:0:0:0:
36,192,202657,1,2,0:0:0:0:
109,192,202715,1,0,0:0:0:0:
182,192,202773,1,0,0:0:0:0:
256,192,202831,1,0,0:0:0:0:
329,192,202889,1,0,0:0:0:0:
402,192,202947,1,0,0:0:0:0:
475,192,203005,1,0,0:0:0:0:
182,192,203005,1,0,0:0:0:0:
256,192,203005,1,2,0:0:0:0:
109,192,203064,1,0,0:0:0:0:
36,192,203122,1,0,0:0:0:0:
475,192,203180,1,0,0:0:0:0:
402,192,203238,1,0,0:0:0:0:
329,192,203267,1,0,0:0:0:0:
256,192,203267,1,2,0:0:0:0:
36,192,203296,1,0,0:0:0:0:
109,192,203354,1,0,0:0:0:0:
182,192,203412,1,0,0:0:0:0:
256,192,203471,1,0,0:0:0:0:
329,192,203529,1,2,0:0:0:0:
402,192,203529,1,0,0:0:0:0:
475,192,203529,1,0,0:0:0:0:
36,192,203587,1,0,0:0:0:0:
109,192,203645,1,0,0:0:0:0:
182,192,203703,1,0,0:0:0:0:
256,192,203703,1,2,0:0:0:0:
329,192,203703,1,0,0:0:0:0:
475,192,203761,1,0,0:0:0:0:
402,192,203819,1,0,0:0:0:0:
329,192,203878,1,0,0:0:0:0:
256,192,203936,1,0,0:0:0:0:
182,192,203994,1,0,0:0:0:0:
109,192,204052,1,8,0:0:0:0:
36,192,204052,1,8,0:0:0:0:
475,192,204052,1,2,0:0:0:0:
402,192,204110,1,0,0:0:0:0:
329,192,204168,1,0,0:0:0:0:
256,192,204226,1,0,0:0:0:0:
182,192,204284,1,0,0:0:0:0:
109,192,204343,1,0,0:0:0:0:
36,192,204401,1,0,0:0:0:0:
475,192,204401,1,0,0:0:0:0:
402,192,204401,1,2,0:0:0:0:
109,192,204459,1,0,0:0:0:0:
182,192,204517,1,0,0:0:0:0:
256,192,204575,1,0,0:0:0:0:
329,192,204633,1,0,0:0:0:0:
402,192,204691,1,0,0:0:0:0:
475,192,204750,1,2,0:0:0:0:
36,192,204750,1,8,0:0:0:0:
182,192,204750,1,8,0:0:0:0:
256,192,204808,1,0,0:0:0:0:
329,192,204866,1,0,0:0:0:0:
402,192,204924,1,0,0:0:0:0:
36,192,204982,1,0,0:0:0:0:
109,192,205040,1,0,0:0:0:0:
182,192,205098,1,0,0:0:0:0:
475,192,205098,1,0,0:0:0:0:
256,192,205098,1,2,0:0:0:0:
402,192,205157,1,0,0:0:0:0:
329,192,205215,1,0,0:0:0:0:
256,192,205273,1,0,0:0:0:0:
182,192,205331,1,0,0:0:0:0:
109,192,205389,1,0,0:0:0:0:
36,192,205447,1,2,0:0:0:0:
329,192,205447,1,8,0:0:0:0:
475,192,205447,1,8,0:0:0:0:
256,192,205505,1,0,0:0:0:0:
182,192,205564,1,0,0:0:0:0:
109,192,205622,1,0,0:0:0:0:
36,192,205680,1,0,0:0:0:0:
329,192,205738,1,0,0:0:0:0:
402,192,205796,1,0,0:0:0:0:
475,192,205796,1,2,0:0:0:0:
109,192,205796,1,0,0:0:0:0:
182,192,205854,1,0,0:0:0:0:
256,192,205912,1,0,0:0:0:0:
329,192,205971,1,0,0:0:0:0:
402,192,206029,1,0,0:0:0:0:
36,192,206058,1,2,0:0:0:0:
109,192,206058,1,0,0:0:0:0:
475,192,206087,1,0,0:0:0:0:
402,192,206145,1,0,0:0:0:0:
329,192,206203,1,0,0:0:0:0:
256,192,206261,1,0,0:0:0:0:
182,192,206319,1,2,0:0:0:0:
109,192,206319,1,0,0:0:0:0:
475,192,206319,1,0,0:0:0:0:
402,192,206378,1,0,0:0:0:0:
329,192,206436,1,0,0:0:0:0:
256,192,206494,1,2,0:0:0:0:
36,192,206494,1,0,0:0:0:50:crashL.wav
475,192,206494,1,0,0:0:0:50:crashR.wav
109,192,206494,1,0,0:0:0:0:
182,192,206668,1,0,0:0:0:0:
329,192,206668,1,0,0:0:0:0:
402,192,206843,1,8,0:0:0:0:
109,192,206843,1,8,0:0:0:0:
256,192,206843,1,2,0:0:0:0:
402,192,206930,1,0,0:0:0:0:
109,192,206930,1,0,0:0:0:0:
402,192,207104,1,0,0:0:0:0:
109,192,207104,1,0,0:0:0:0:
329,192,207191,1,0,0:0:0:0:
256,192,207191,1,2,0:0:0:0:
182,192,207191,1,0,0:0:0:0:
329,192,207366,1,0,0:0:0:0:
182,192,207366,1,0,0:0:0:0:
329,192,207453,1,0,0:0:0:0:
182,192,207453,1,2,0:0:0:0:
256,192,207453,1,0,0:0:0:0:
36,192,207540,1,8,0:0:0:0:
109,192,207540,1,2,0:0:0:0:
475,192,207540,1,8,0:0:0:0:
182,192,207628,1,8,0:0:0:0:
329,192,207628,1,8,0:0:0:0:
36,192,207715,1,8,0:0:0:0:
402,192,207715,1,2,0:0:0:0:
475,192,207715,1,8,0:0:0:0:
109,192,207889,1,0,0:0:0:0:
256,192,207889,1,2,0:0:0:0:
402,192,207889,1,0,0:0:0:0:
36,192,208064,1,0,0:0:0:0:
475,192,208064,1,0,0:0:0:0:
109,192,208238,1,8,0:0:0:0:
256,192,208238,1,2,0:0:0:0:
402,192,208238,1,8,0:0:0:0:
182,192,208325,1,0,0:0:0:0:
329,192,208325,1,0,0:0:0:0:
182,192,208500,1,0,0:0:0:0:
329,192,208500,1,0,0:0:0:0:
109,192,208587,1,2,0:0:0:0:
402,192,208587,1,0,0:0:0:0:
256,192,208587,1,0,0:0:0:0:
36,192,208761,1,0,0:0:0:0:
256,192,208761,1,0,0:0:0:0:
475,192,208761,1,0,0:0:0:0:
109,192,208805,1,0,0:0:0:0:
329,192,208805,1,0,0:0:0:0:
182,192,208848,1,0,0:0:0:0:
402,192,208848,1,0,0:0:0:0:
475,192,208892,1,0,0:0:0:0:
256,192,208892,1,0,0:0:0:0:
36,192,208936,1,2,0:0:0:0:
109,192,208936,1,8,0:0:0:0:
329,192,208936,1,8,0:0:0:0:
109,192,209110,1,0,0:0:0:50:crashL.wav
182,192,209110,1,2,0:0:0:0:
329,192,209110,1,0,0:0:0:0:
402,192,209110,1,0,0:0:0:50:crashR.wav
36,192,209284,1,0,0:0:0:0:
182,192,209284,1,2,0:0:0:0:
329,192,209284,1,0,0:0:0:0:
36,192,209459,1,0,0:0:0:0:
182,192,209459,1,2,0:0:0:0:
329,192,209459,1,0,0:0:0:0:
36,192,209546,1,0,0:0:0:0:
109,192,209633,1,8,0:0:0:0:
256,192,209633,1,2,0:0:0:0:
402,192,209633,1,8,0:0:0:0:
402,192,209808,1,0,0:0:0:0:
109,192,209808,1,0,0:0:0:0:
109,192,209895,1,0,0:0:0:0:
475,192,209982,1,0,0:0:0:0:
329,192,209982,1,2,0:0:0:0:
182,192,209982,1,0,0:0:0:0:
182,192,210157,1,0,0:0:0:0:
329,192,210157,1,0,0:0:0:0:
182,192,210244,1,0,0:0:0:0:
256,192,210331,1,8,0:0:0:0:
402,192,210331,1,2,0:0:0:0:
36,192,210331,1,8,0:0:0:0:
182,192,210505,1,0,0:0:0:0:
329,192,210505,1,0,0:0:0:0:
329,192,210593,1,0,0:0:0:0:
109,192,210680,1,0,0:0:0:0:
256,192,210680,1,2,0:0:0:0:
402,192,210680,1,0,0:0:0:0:
109,192,210854,1,0,0:0:0:0:
256,192,210854,1,2,0:0:0:0:
402,192,210854,1,0,0:0:0:0:
402,192,210941,1,0,0:0:0:0:
182,192,211029,1,8,0:0:0:0:
329,192,211029,1,2,0:0:0:0:
475,192,211029,1,8,0:0:0:0:
182,192,211203,1,0,0:0:0:0:
329,192,211203,1,2,0:0:0:0:
475,192,211203,1,0,0:0:0:0:
475,192,211290,1,0,0:0:0:0:
36,192,211378,1,0,0:0:0:0:
182,192,211378,1,0,0:0:0:0:
402,192,211378,1,2,0:0:0:0:
402,192,211552,1,2,0:0:0:0:
182,192,211552,1,0,0:0:0:0:
36,192,211552,1,0,0:0:0:0:
36,192,211639,1,0,0:0:0:0:
475,192,211726,1,2,0:0:0:0:
256,192,211726,1,8,0:0:0:0:
109,192,211726,1,8,0:0:0:0:
402,192,211814,1,2,0:0:0:0:
329,192,211814,1,0,0:0:0:0:
36,192,211901,1,2,0:0:0:0:
109,192,211901,1,0,0:0:0:0:
182,192,211944,1,2,0:0:0:0:
329,192,211944,1,0,0:0:0:0:
402,192,211988,1,0,0:0:0:0:
475,192,211988,1,2,0:0:0:0:
36,192,212032,1,0,0:0:0:0:
109,192,212032,1,2,0:0:0:0:
182,192,212075,1,0,0:0:0:0:
256,192,212075,1,2,0:0:0:0:
329,192,212075,1,0,0:0:0:0:
182,192,212250,1,0,0:0:0:0:
256,192,212250,1,2,0:0:0:0:
329,192,212250,1,0,0:0:0:0:
36,192,212337,1,0,0:0:0:0:
475,192,212337,1,0,0:0:0:0:
109,192,212424,1,0,0:0:0:0:
256,192,212424,1,2,0:0:0:0:
402,192,212424,1,0,0:0:0:0:
182,192,212598,1,0,0:0:0:0:
256,192,212598,1,2,0:0:0:0:
329,192,212598,1,0,0:0:0:0:
109,192,212686,1,0,0:0:0:0:
402,192,212686,1,0,0:0:0:0:
256,192,212773,1,2,0:0:0:0:
36,192,212773,1,0,0:0:0:0:
475,192,212773,1,0,0:0:0:0:
36,192,212947,1,0,0:0:0:0:
256,192,212947,1,2,0:0:0:0:
475,192,212947,1,0,0:0:0:0:
109,192,213034,1,0,0:0:0:0:
402,192,213034,1,0,0:0:0:0:
256,192,213122,1,2,0:0:0:0:
182,192,213122,1,0,0:0:0:0:
329,192,213122,1,0,0:0:0:0:
182,192,213296,1,2,0:0:0:0:
109,192,213296,1,0,0:0:0:0:
36,192,213296,1,0,0:0:0:0:
329,192,213383,1,2,0:0:0:0:
475,192,213383,1,0,0:0:0:0:
402,192,213383,1,0,0:0:0:0:
36,192,213471,1,0,0:0:0:0:
109,192,213471,1,0,0:0:0:0:
182,192,213471,1,2,0:0:0:0:
256,192,213471,1,0,0:0:0:0:
475,192,213558,1,2,0:0:0:0:
329,192,213558,1,0,0:0:0:0:
402,192,213558,1,0,0:0:0:0:
36,192,213645,1,0,0:0:0:0:
109,192,213645,1,2,0:0:0:0:
182,192,213645,1,0,0:0:0:0:
256,192,213689,1,2,0:0:0:0:
329,192,213732,1,2,0:0:0:0:
402,192,213776,1,2,0:0:0:0:
109,192,213819,1,2,0:0:0:0:
475,192,213819,1,0,0:0:0:0:
36,192,213819,1,0,0:0:0:0:
329,192,213907,1,0,0:0:0:0:
182,192,213907,1,0,0:0:0:0:
256,192,213907,1,2,0:0:0:0:
475,192,213994,1,0,0:0:0:0:
36,192,213994,1,0,0:0:0:0:
402,192,213994,1,2,0:0:0:0:
109,192,214037,1,2,0:0:0:0:
182,192,214081,1,2,0:0:0:0:
256,192,214125,1,2,0:0:0:0:
329,192,214168,1,0,0:0:0:0:
402,192,214168,1,2,0:0:0:0:
475,192,214168,1,0,0:0:0:0:
36,192,214255,1,0,0:0:0:0:
109,192,214255,1,0,0:0:0:0:
182,192,214255,1,2,0:0:0:0:
402,192,214343,1,2,0:0:0:0:
329,192,214343,1,0,0:0:0:0:
475,192,214343,1,0,0:0:0:0:
256,192,214386,1,2,0:0:0:0:
182,192,214430,1,2,0:0:0:0:
109,192,214473,1,2,0:0:0:0:
36,192,214517,1,0,0:0:0:0:
402,192,214517,1,2,0:0:0:0:
475,192,214517,1,0,0:0:0:0:
329,192,214604,1,0,0:0:0:0:
256,192,214604,1,0,0:0:0:0:
182,192,214604,1,2,0:0:0:0:
475,192,214691,1,0,0:0:0:0:
36,192,214691,1,2,0:0:0:0:
109,192,214691,1,0,0:0:0:0:
402,192,214735,1,2,0:0:0:0:
329,192,214779,1,2,0:0:0:0:
256,192,214822,1,2,0:0:0:0:
402,192,214866,128,4,218005:0:0:0:0:
36,192,214866,128,4,219052:0:0:0:0:
109,192,214866,128,4,218005:0:0:0:0:
475,192,214866,128,4,219052:0:0:0:0:
182,192,214866,1,2,0:0:0:0:
329,192,214953,1,0,0:0:0:0:
182,192,215040,1,0,0:0:0:0:
329,192,215128,1,0,0:0:0:0:
256,192,215215,1,8,0:0:0:0:
329,192,215302,1,0,0:0:0:0:
182,192,215389,1,0,0:0:0:0:
329,192,215476,1,0,0:0:0:0:
256,192,215564,1,0,0:0:0:0:
329,192,215651,1,0,0:0:0:0:
256,192,215738,1,0,0:0:0:0:
329,192,215825,1,0,0:0:0:0:
182,192,215912,1,8,0:0:0:0:
256,192,216000,1,0,0:0:0:0:
182,192,216087,1,0,0:0:0:0:
256,192,216174,1,0,0:0:0:0:
182,192,216261,1,0,0:0:0:0:
329,192,216348,1,0,0:0:0:0:
182,192,216436,1,0,0:0:0:0:
329,192,216523,1,0,0:0:0:0:
256,192,216610,1,8,0:0:0:0:
329,192,216697,1,0,0:0:0:0:
256,192,216784,1,0,0:0:0:0:
329,192,216872,1,0,0:0:0:0:
182,192,216959,1,0,0:0:0:0:
256,192,217046,1,0,0:0:0:0:
182,192,217133,1,0,0:0:0:0:
256,192,217221,1,0,0:0:0:0:
182,192,217308,1,8,0:0:0:0:
329,192,217395,1,0,0:0:0:0:
182,192,217482,1,0,0:0:0:0:
329,192,217569,1,0,0:0:0:0:
182,192,217657,1,0,0:0:0:0:
329,192,217744,1,0,0:0:0:0:
182,192,217831,1,0,0:0:0:0:
329,192,217918,1,0,0:0:0:0:
182,192,218005,1,8,0:0:0:0:
256,192,218064,1,0,0:0:0:0:
329,192,218122,1,0,0:0:0:0:
402,192,218180,1,0,0:0:0:0:
109,192,218180,1,0,0:0:0:0:
182,192,218238,1,0,0:0:0:0:
329,192,218296,1,0,0:0:0:0:
402,192,218354,1,0,0:0:0:0:
329,192,218412,1,0,0:0:0:0:
182,192,218471,1,0,0:0:0:0:
109,192,218529,1,0,0:0:0:0:
402,192,218529,1,0,0:0:0:0:
329,192,218587,1,0,0:0:0:0:
182,192,218645,1,0,0:0:0:0:
109,192,218703,1,8,0:0:0:0:
182,192,218761,1,0,0:0:0:0:
329,192,218819,1,0,0:0:0:0:
402,192,218878,1,0,0:0:0:0:
109,192,218878,1,0,0:0:0:0:
182,192,218936,1,0,0:0:0:0:
256,192,218994,1,0,0:0:0:0:
402,192,219052,1,0,0:0:0:0:
109,192,219052,1,0,0:0:0:0:
182,192,219110,1,0,0:0:0:0:
329,192,219110,1,0,0:0:0:0:
256,192,219168,1,0,0:0:0:0:
182,192,219226,1,0,0:0:0:0:
329,192,219226,1,0,0:0:0:0:
109,192,219284,1,0,0:0:0:0:
402,192,219284,1,0,0:0:0:0:
475,192,219343,1,0,0:0:0:0:
36,192,219343,1,0,0:0:0:0:
182,192,219401,128,8,219633:0:0:0:0:
256,192,219401,128,2,219633:0:0:0:0:
329,192,219401,128,8,219633:0:0:0:0:
402,192,219401,128,0,219633:0:0:0:0:
109,192,219401,128,0,219633:0:0:0:0:
109,192,219750,128,0,219982:0:0:0:0:
182,192,219750,128,8,219982:0:0:0:0:
256,192,219750,128,2,219982:0:0:0:0:
329,192,219750,128,8,219982:0:0:0:0:
402,192,219750,128,0,219982:0:0:0:0:
36,192,220098,128,0,220331:0:0:0:0:
109,192,220098,128,8,220331:0:0:0:0:
182,192,220098,128,2,220331:0:0:0:0:
256,192,220098,128,8,220331:0:0:0:0:
329,192,220098,128,0,220331:0:0:0:0:
475,192,220447,1,0,0:0:0:55:crashR.wav
256,192,220447,1,2,0:0:0:0:
36,192,220447,1,0,0:0:0:55:crashL.wav
109,192,220447,1,4,0:0:0:0:
329,192,220447,1,4,0:0:0:0:
402,192,220534,1,0,0:0:0:0:
182,192,220534,1,0,0:0:0:0:
329,192,220622,1,0,0:0:0:0:
109,192,220622,1,0,0:0:0:0:
256,192,220709,1,0,0:0:0:0:
36,192,220709,1,0,0:0:0:0:
329,192,220796,1,8,0:0:0:0:
475,192,220796,1,8,0:0:0:0:
402,192,220796,1,2,0:0:0:0:
256,192,220883,1,0,0:0:0:0:
109,192,220883,1,0,0:0:0:0:
182,192,220971,1,0,0:0:0:0:
402,192,220971,1,0,0:0:0:0:
36,192,221058,1,0,0:0:0:0:
329,192,221058,1,0,0:0:0:0:
109,192,221145,1,0,0:0:0:0:
256,192,221145,1,2,0:0:0:0:
475,192,221145,1,0,0:0:0:0:
182,192,221232,1,0,0:0:0:0:
402,192,221232,1,0,0:0:0:0:
329,192,221319,1,0,0:0:0:0:
109,192,221319,1,0,0:0:0:0:
36,192,221407,1,0,0:0:0:0:
256,192,221407,1,0,0:0:0:0:
109,192,221494,1,8,0:0:0:0:
402,192,221494,1,2,0:0:0:0:
475,192,221494,1,8,0:0:0:0:
182,192,221581,1,0,0:0:0:0:
329,192,221581,1,0,0:0:0:0:
36,192,221668,1,0,0:0:0:0:
402,192,221668,1,0,0:0:0:0:
109,192,221755,1,0,0:0:0:0:
475,192,221755,1,0,0:0:0:0:
182,192,221843,1,0,0:0:0:0:
256,192,221843,1,2,0:0:0:0:
329,192,221843,1,0,0:0:0:0:
402,192,221843,1,0,0:0:0:0:
36,192,222017,1,0,0:0:0:0:
182,192,222075,1,0,0:0:0:0:
329,192,222133,1,0,0:0:0:0:
475,192,222191,1,8,0:0:0:0:
402,192,222191,1,2,0:0:0:0:
36,192,222191,1,8,0:0:0:0:
109,192,222279,1,0,0:0:0:0:
329,192,222279,1,0,0:0:0:0:
475,192,222366,1,0,0:0:0:0:
256,192,222366,1,0,0:0:0:0:
36,192,222453,1,0,0:0:0:0:
182,192,222453,1,0,0:0:0:0:
402,192,222540,1,2,0:0:0:0:
109,192,222540,1,0,0:0:0:0:
475,192,222540,1,0,0:0:0:0:
182,192,222628,1,0,0:0:0:0:
329,192,222628,1,0,0:0:0:0:
402,192,222715,1,0,0:0:0:0:
475,192,222715,1,0,0:0:0:0:
182,192,222802,1,0,0:0:0:0:
36,192,222802,1,0,0:0:0:0:
256,192,222889,1,2,0:0:0:0:
402,192,222889,1,8,0:0:0:0:
329,192,222889,1,8,0:0:0:0:
109,192,222976,1,0,0:0:0:0:
475,192,222976,1,0,0:0:0:0:
36,192,223064,1,0,0:0:0:0:
182,192,223064,1,0,0:0:0:0:
402,192,223151,1,0,0:0:0:0:
329,192,223151,1,0,0:0:0:0:
475,192,223238,1,0,0:0:0:0:
36,192,223238,1,0,0:0:0:0:
109,192,223238,1,2,0:0:0:0:
256,192,223238,1,0,0:0:0:0:
182,192,223325,1,0,0:0:0:0:
329,192,223325,1,0,0:0:0:0:
402,192,223412,1,0,0:0:0:0:
256,192,223412,1,0,0:0:0:0:
36,192,223500,1,0,0:0:0:0:
182,192,223500,1,0,0:0:0:0:
109,192,223587,1,8,0:0:0:0:
329,192,223587,1,2,0:0:0:0:
475,192,223587,1,8,0:0:0:0:
182,192,223674,1,0,0:0:0:0:
402,192,223674,1,0,0:0:0:0:
36,192,223761,1,0,0:0:0:0:
256,192,223761,1,0,0:0:0:0:
109,192,223848,1,0,0:0:0:0:
329,192,223848,1,0,0:0:0:0:
182,192,223936,1,2,0:0:0:0:
402,192,223936,1,0,0:0:0:0:
475,192,223936,1,0,0:0:0:0:
36,192,224023,1,0,0:0:0:0:
256,192,224023,1,0,0:0:0:0:
329,192,224110,1,0,0:0:0:0:
475,192,224110,1,0,0:0:0:0:
182,192,224197,1,0,0:0:0:0:
36,192,224197,1,0,0:0:0:0:
109,192,224284,1,8,0:0:0:0:
256,192,224284,1,2,0:0:0:0:
475,192,224284,1,8,0:0:0:0:
329,192,224343,1,0,0:0:0:0:
402,192,224401,1,0,0:0:0:0:
182,192,224459,1,0,0:0:0:0:
256,192,224517,1,0,0:0:0:0:
329,192,224575,1,0,0:0:0:0:
475,192,224633,1,0,0:0:0:0:
402,192,224633,1,2,0:0:0:0:
36,192,224633,1,0,0:0:0:0:
109,192,224633,1,0,0:0:0:0:
329,192,224895,1,0,0:0:0:0:
475,192,224895,1,0,0:0:0:0:
36,192,224982,1,8,0:0:0:0:
109,192,224982,1,2,0:0:0:0:
182,192,224982,1,8,0:0:0:0:
475,192,225069,1,0,0:0:0:0:
256,192,225157,1,0,0:0:0:0:
402,192,225157,1,0,0:0:0:0:
475,192,225244,1,0,0:0:0:0:
109,192,225331,1,0,0:0:0:0:
36,192,225331,1,2,0:0:0:0:
182,192,225331,1,0,0:0:0:0:
402,192,225418,1,0,0:0:0:0:
182,192,225505,1,0,0:0:0:0:
329,192,225505,1,0,0:0:0:0:
109,192,225593,1,2,0:0:0:0:
402,192,225593,1,0,0:0:0:0:
36,192,225680,1,8,0:0:0:0:
256,192,225680,1,2,0:0:0:0:
475,192,225680,1,8,0:0:0:0:
402,192,225767,1,0,0:0:0:0:
182,192,225854,1,0,0:0:0:0:
329,192,225854,1,0,0:0:0:0:
256,192,225854,1,2,0:0:0:0:
109,192,225941,1,0,0:0:0:0:
36,192,226029,1,0,0:0:0:0:
256,192,226029,1,2,0:0:0:0:
475,192,226029,1,0,0:0:0:0:
329,192,226029,1,0,0:0:0:0:
402,192,226116,1,0,0:0:0:0:
182,192,226116,1,0,0:0:0:0:
329,192,226203,1,0,0:0:0:0:
109,192,226203,1,0,0:0:0:0:
36,192,226290,1,0,0:0:0:0:
256,192,226290,1,0,0:0:0:0:
182,192,226378,1,2,0:0:0:0:
402,192,226378,1,8,0:0:0:0:
475,192,226378,1,8,0:0:0:0:
36,192,226465,1,0,0:0:0:0:
256,192,226465,1,0,0:0:0:0:
109,192,226552,1,0,0:0:0:0:
329,192,226552,1,0,0:0:0:0:
402,192,226639,1,0,0:0:0:0:
182,192,226639,1,0,0:0:0:0:
256,192,226726,1,2,0:0:0:0:
475,192,226726,1,0,0:0:0:0:
36,192,226726,1,0,0:0:0:0:
329,192,226901,1,0,0:0:0:0:
109,192,226901,1,0,0:0:0:0:
182,192,227075,1,8,0:0:0:0:
402,192,227075,1,2,0:0:0:0:
475,192,227075,1,8,0:0:0:0:
109,192,227250,1,0,0:0:0:0:
329,192,227250,1,0,0:0:0:0:
256,192,227424,1,2,0:0:0:0:
36,192,227424,1,0,0:0:0:0:
182,192,227424,1,0,0:0:0:0:
402,192,227424,1,0,0:0:0:0:
475,192,227773,1,8,0:0:0:0:
402,192,227773,1,2,0:0:0:0:
36,192,227773,1,8,0:0:0:0:
109,192,227860,1,0,0:0:0:0:
329,192,227860,1,0,0:0:0:0:
182,192,227947,1,0,0:0:0:0:
402,192,227947,1,0,0:0:0:0:
475,192,228034,1,0,0:0:0:0:
256,192,228034,1,0,0:0:0:0:
109,192,228122,1,2,0:0:0:0:
36,192,228122,1,0,0:0:0:0:
329,192,228122,1,0,0:0:0:0:
182,192,228122,1,0,0:0:0:0:
256,192,228296,1,0,0:0:0:0:
402,192,228296,1,0,0:0:0:0:
36,192,228383,1,0,0:0:0:0:
109,192,228383,1,2,0:0:0:0:
329,192,228471,1,8,0:0:0:0:
182,192,228471,1,8,0:0:0:0:
256,192,228471,1,0,0:0:0:0:
36,192,228645,1,0,0:0:0:0:
182,192,228645,1,0,0:0:0:0:
109,192,228645,1,2,0:0:0:0:
256,192,228732,1,2,0:0:0:0:
475,192,228819,1,0,0:0:0:0:
402,192,228819,1,2,0:0:0:0:
36,192,228819,1,0,0:0:0:55:crashL.wav
329,192,228819,1,0,0:0:0:0:
109,192,228878,1,0,0:0:0:0:
182,192,228936,1,0,0:0:0:0:
36,192,228994,1,0,0:0:0:0:
256,192,228994,1,0,0:0:0:0:
109,192,229037,1,0,0:0:0:0:
182,192,229081,1,0,0:0:0:0:
256,192,229125,1,0,0:0:0:0:
329,192,229168,1,2,0:0:0:0:
475,192,229168,1,8,0:0:0:0:
402,192,229168,1,8,0:0:0:0:
36,192,229212,1,0,0:0:0:0:
109,192,229255,1,0,0:0:0:0:
475,192,229299,1,0,0:0:0:0:
402,192,229343,1,0,0:0:0:0:
329,192,229386,1,0,0:0:0:0:
256,192,229430,1,0,0:0:0:0:
182,192,229473,1,0,0:0:0:0:
36,192,229517,1,2,0:0:0:0:
475,192,229517,1,0,0:0:0:55:crashR.wav
402,192,229517,1,0,0:0:0:0:
109,192,229517,1,0,0:0:0:0:
329,192,229604,1,0,0:0:0:0:
256,192,229691,1,0,0:0:0:0:
182,192,229691,1,0,0:0:0:0:
329,192,229735,1,0,0:0:0:0:
402,192,229779,1,0,0:0:0:0:
475,192,229822,1,0,0:0:0:0:
36,192,229866,1,8,0:0:0:0:
109,192,229866,1,8,0:0:0:0:
182,192,229866,1,2,0:0:0:0:
256,192,229909,1,0,0:0:0:0:
475,192,229953,1,0,0:0:0:0:
402,192,229997,1,0,0:0:0:0:
329,192,230040,1,0,0:0:0:0:
256,192,230084,1,0,0:0:0:0:
182,192,230128,1,0,0:0:0:0:
109,192,230171,1,0,0:0:0:0:
36,192,230215,1,0,0:0:0:55:crashL.wav
402,192,230215,1,0,0:0:0:0:
475,192,230215,1,2,0:0:0:0:
329,192,230215,1,0,0:0:0:0:
36,192,230389,1,0,0:0:0:0:
109,192,230433,1,0,0:0:0:0:
182,192,230476,1,0,0:0:0:0:
256,192,230520,1,0,0:0:0:0:
402,192,230564,1,8,0:0:0:0:
329,192,230564,1,2,0:0:0:0:
475,192,230564,1,8,0:0:0:0:
36,192,230607,1,0,0:0:0:0:
182,192,230651,1,0,0:0:0:0:
402,192,230694,1,0,0:0:0:0:
329,192,230738,1,0,0:0:0:0:
256,192,230782,1,0,0:0:0:0:
182,192,230825,1,2,0:0:0:0:
109,192,230869,1,0,0:0:0:0:
36,192,230912,1,0,0:0:0:0:
475,192,230912,1,0,0:0:0:0:
402,192,230912,1,0,0:0:0:0:
256,192,230912,1,2,0:0:0:0:
109,192,231000,1,0,0:0:0:0:
329,192,231000,1,0,0:0:0:0:
182,192,231087,1,0,0:0:0:0:
402,192,231087,1,2,0:0:0:0:
475,192,231087,1,0,0:0:0:0:
109,192,231174,1,0,0:0:0:0:
329,192,231174,1,0,0:0:0:0:
36,192,231261,1,8,0:0:0:0:
475,192,231261,1,10,0:0:0:0:
256,192,231261,1,0,0:0:0:0:
182,192,231348,1,0,0:0:0:0:
402,192,231348,1,0,0:0:0:0:
109,192,231436,1,0,0:0:0:0:
329,192,231436,1,2,0:0:0:0:
36,192,231436,1,0,0:0:0:0:
402,192,231523,1,2,0:0:0:0:
182,192,231523,1,0,0:0:0:0:
475,192,231523,1,0,0:0:0:0:
329,192,231610,1,2,0:0:0:0:
36,192,231610,1,4,0:0:0:0:
109,192,231610,1,0,0:0:0:0:
256,192,231610,1,4,0:0:0:0:
402,192,231697,1,0,0:0:0:0:
475,192,231697,1,0,0:0:0:0:
256,192,231784,1,0,0:0:0:0:
109,192,231784,1,0,0:0:0:0:
475,192,231872,1,0,0:0:0:0:
36,192,231872,1,0,0:0:0:0:
109,192,231959,1,8,0:0:0:0:
182,192,231959,1,2,0:0:0:0:
402,192,231959,1,8,0:0:0:0:
329,192,232046,1,0,0:0:0:0:
256,192,232046,1,0,0:0:0:0:
36,192,232133,1,0,0:0:0:0:
109,192,232133,1,0,0:0:0:0:
182,192,232221,1,0,0:0:0:0:
402,192,232221,1,0,0:0:0:0:
475,192,232308,1,0,0:0:0:0:
256,192,232308,1,2,0:0:0:0:
36,192,232308,1,0,0:0:0:0:
182,192,232395,1,0,0:0:0:0:
402,192,232395,1,0,0:0:0:0:
329,192,232482,1,0,0:0:0:0:
109,192,232482,1,0,0:0:0:0:
182,192,232569,1,0,0:0:0:0:
402,192,232569,1,0,0:0:0:0:
36,192,232657,1,8,0:0:0:0:
256,192,232657,1,2,0:0:0:0:
475,192,232657,1,8,0:0:0:0:
109,192,232744,1,0,0:0:0:0:
329,192,232744,1,0,0:0:0:0:
182,192,232831,1,0,0:0:0:0:
402,192,232831,1,0,0:0:0:0:
256,192,232918,1,0,0:0:0:0:
475,192,232918,1,0,0:0:0:0:
36,192,233005,1,0,0:0:0:0:
109,192,233005,1,0,0:0:0:0:
329,192,233005,1,2,0:0:0:0:
402,192,233005,1,0,0:0:0:0:
109,192,233180,1,0,0:0:0:0:
402,192,233180,1,0,0:0:0:0:
36,192,233238,1,0,0:0:0:0:
475,192,233238,1,0,0:0:0:0:
109,192,233296,1,0,0:0:0:0:
402,192,233296,1,0,0:0:0:0:
329,192,233354,1,8,0:0:0:0:
256,192,233354,1,2,0:0:0:0:
182,192,233354,1,8,0:0:0:0:
182,192,233529,1,0,0:0:0:0:
329,192,233529,1,0,0:0:0:0:
475,192,233587,1,0,0:0:0:0:
36,192,233587,1,0,0:0:0:0:
402,192,233645,1,0,0:0:0:0:
109,192,233645,1,0,0:0:0:0:
182,192,233703,1,0,0:0:0:0:
256,192,233703,1,2,0:0:0:0:
329,192,233703,1,0,0:0:0:0:
182,192,233878,1,0,0:0:0:0:
475,192,233878,1,0,0:0:0:0:
109,192,233936,1,0,0:0:0:0:
402,192,233936,1,0,0:0:0:0:
36,192,233994,1,0,0:0:0:0:
329,192,233994,1,0,0:0:0:0:
256,192,234052,1,2,0:0:0:0:
182,192,234052,1,8,0:0:0:0:
475,192,234052,1,8,0:0:0:0:
36,192,234226,1,0,0:0:0:0:
329,192,234284,1,0,0:0:0:0:
182,192,234343,1,0,0:0:0:0:
256,192,234401,1,2,0:0:0:0:
109,192,234401,1,0,0:0:0:0:
402,192,234401,1,0,0:0:0:0:
475,192,234401,1,0,0:0:0:0:
182,192,234488,1,0,0:0:0:0:
36,192,234488,1,0,0:0:0:0:
256,192,234575,1,0,0:0:0:0:
475,192,234575,1,0,0:0:0:0:
402,192,234662,1,0,0:0:0:0:
109,192,234662,1,0,0:0:0:0:
36,192,234750,1,8,0:0:0:0:
182,192,234750,1,2,0:0:0:0:
329,192,234750,1,8,0:0:0:0:
256,192,234837,1,0,0:0:0:0:
475,192,234837,1,0,0:0:0:0:
329,192,234924,1,0,0:0:0:0:
36,192,234924,1,0,0:0:0:0:
109,192,235011,1,0,0:0:0:0:
402,192,235011,1,0,0:0:0:0:
182,192,235098,1,0,0:0:0:0:
256,192,235098,1,2,0:0:0:0:
475,192,235098,1,0,0:0:0:0:
36,192,235186,1,0,0:0:0:0:
329,192,235186,1,0,0:0:0:0:
402,192,235273,1,0,0:0:0:0:
475,192,235273,1,0,0:0:0:0:
182,192,235360,1,0,0:0:0:0:
109,192,235360,1,0,0:0:0:0:
329,192,235447,1,2,0:0:0:0:
256,192,235447,1,8,0:0:0:0:
402,192,235447,1,8,0:0:0:0:
475,192,235534,1,0,0:0:0:0:
36,192,235534,1,0,0:0:0:0:
109,192,235622,1,0,0:0:0:0:
402,192,235622,1,0,0:0:0:0:
329,192,235709,1,0,0:0:0:0:
182,192,235709,1,0,0:0:0:0:
256,192,235796,1,2,0:0:0:0:
475,192,235796,1,0,0:0:0:0:
36,192,235796,1,0,0:0:0:0:
36,192,235971,1,0,0:0:0:0:
402,192,235971,1,0,0:0:0:0:
109,192,236029,1,0,0:0:0:0:
182,192,236087,1,0,0:0:0:0:
256,192,236145,1,2,0:0:0:0:
36,192,236145,1,8,0:0:0:0:
475,192,236145,1,8,0:0:0:0:
329,192,236203,1,0,0:0:0:0:
402,192,236261,1,0,0:0:0:0:
109,192,236319,1,0,0:0:0:0:
475,192,236319,1,0,0:0:0:0:
182,192,236378,1,0,0:0:0:0:
256,192,236436,1,0,0:0:0:0:
329,192,236494,1,0,0:0:0:0:
475,192,236494,1,0,0:0:0:0:
402,192,236494,1,2,0:0:0:0:
36,192,236581,1,0,0:0:0:0:
182,192,236668,1,0,0:0:0:0:
329,192,236668,1,0,0:0:0:0:
402,192,236726,1,0,0:0:0:0:
475,192,236784,1,0,0:0:0:0:
36,192,236843,1,8,0:0:0:0:
182,192,236843,1,8,0:0:0:0:
109,192,236843,1,2,0:0:0:0:
256,192,236901,1,0,0:0:0:0:
329,192,236959,1,0,0:0:0:0:
109,192,237017,1,0,0:0:0:0:
475,192,237017,1,0,0:0:0:0:
402,192,237075,1,0,0:0:0:0:
329,192,237133,1,0,0:0:0:0:
36,192,237191,1,4,0:0:0:0:
182,192,237191,1,0,0:0:0:0:
475,192,237191,1,4,0:0:0:0:
109,192,237191,1,0,0:0:0:0:
256,192,237191,1,2,0:0:0:0:
402,192,237250,1,0,0:0:0:0:
329,192,237308,1,0,0:0:0:0:
256,192,237366,1,0,0:0:0:0:
182,192,237424,1,0,0:0:0:0:
109,192,237482,1,0,0:0:0:0:
402,192,237540,1,8,0:0:0:0:
329,192,237598,1,0,0:0:0:0:
256,192,237657,1,0,0:0:0:0:
182,192,237715,1,0,0:0:0:0:
109,192,237773,1,0,0:0:0:0:
36,192,237831,1,0,0:0:0:0:
475,192,237889,1,0,0:0:0:0:
256,192,237889,1,0,0:0:0:0:
402,192,237976,1,0,0:0:0:0:
182,192,237976,1,0,0:0:0:0:
329,192,238064,1,0,0:0:0:0:
109,192,238064,1,0,0:0:0:0:
256,192,238151,1,0,0:0:0:0:
36,192,238151,1,0,0:0:0:0:
475,192,238238,1,0,0:0:0:0:
329,192,238238,1,8,0:0:0:0:
36,192,238325,1,0,0:0:0:0:
182,192,238325,1,0,0:0:0:0:
256,192,238412,1,2,0:0:0:0:
109,192,238412,1,0,0:0:0:0:
402,192,238412,1,0,0:0:0:0:
329,192,238500,1,0,0:0:0:0:
182,192,238500,1,0,0:0:0:0:
36,192,238587,1,4,0:0:0:0:
475,192,238587,1,4,0:0:0:0:
256,192,238587,1,2,0:0:0:0:
109,192,238587,1,0,0:0:0:0:
402,192,238587,1,0,0:0:0:0:
109,192,238761,1,0,0:0:0:0:
182,192,238761,1,2,0:0:0:0:
329,192,238848,1,2,0:0:0:0:
402,192,238848,1,0,0:0:0:0:
109,192,238936,1,8,0:0:0:0:
182,192,238936,1,8,0:0:0:0:
329,192,239023,1,2,0:0:0:0:
402,192,239023,1,0,0:0:0:0:
36,192,239110,1,0,0:0:0:0:
109,192,239110,1,2,0:0:0:0:
182,192,239154,1,2,0:0:0:0:
256,192,239197,1,2,0:0:0:0:
329,192,239241,1,2,0:0:0:0:
36,192,239284,1,0,0:0:0:0:
109,192,239284,1,0,0:0:0:0:
475,192,239284,1,2,0:0:0:0:
402,192,239284,1,0,0:0:0:0:
36,192,239372,1,0,0:0:0:0:
475,192,239372,1,2,0:0:0:0:
109,192,239372,1,0,0:0:0:0:
402,192,239372,1,0,0:0:0:0:
36,192,239546,1,0,0:0:0:0:
109,192,239546,1,0,0:0:0:0:
475,192,239546,1,2,0:0:0:0:
402,192,239546,1,0,0:0:0:0:
329,192,239633,1,0,0:0:0:0:
182,192,239633,1,2,0:0:0:0:
36,192,239633,128,8,239895:0:0:0:0:
475,192,239633,128,8,239895:0:0:0:0:
109,192,239721,1,2,0:0:0:0:
402,192,239721,1,0,0:0:0:0:
329,192,239808,1,0,0:0:0:0:
182,192,239808,1,2,0:0:0:0:
109,192,239895,1,2,0:0:0:0:
402,192,239895,1,0,0:0:0:0:
182,192,239982,1,4,0:0:0:0:
329,192,239982,1,4,0:0:0:0:
256,192,239982,1,2,0:0:0:0:
36,192,239982,1,0,0:0:0:0:
475,192,239982,1,0,0:0:0:0:
109,192,240069,1,0,0:0:0:0:
402,192,240069,1,0,0:0:0:0:
329,192,240157,1,0,0:0:0:0:
36,192,240157,1,0,0:0:0:0:
475,192,240244,1,0,0:0:0:0:
256,192,240244,1,0,0:0:0:0:
109,192,240331,1,8,0:0:0:0:
182,192,240331,1,2,0:0:0:0:
402,192,240331,1,8,0:0:0:0:
329,192,240418,1,0,0:0:0:0:
36,192,240418,1,0,0:0:0:0:
475,192,240505,1,0,0:0:0:0:
182,192,240505,1,0,0:0:0:0:
329,192,240593,1,0,0:0:0:0:
36,192,240593,1,0,0:0:0:0:
256,192,240680,1,2,0:0:0:0:
475,192,240680,1,0,0:0:0:0:
182,192,240680,1,0,0:0:0:0:
402,192,240767,1,0,0:0:0:0:
109,192,240767,1,0,0:0:0:0:
329,192,240854,1,0,0:0:0:0:
36,192,240854,1,0,0:0:0:0:
256,192,240941,1,0,0:0:0:0:
475,192,240941,1,0,0:0:0:0:
36,192,241029,1,8,0:0:0:0:
109,192,241029,1,2,0:0:0:0:
182,192,241029,1,8,0:0:0:0:
256,192,241116,1,0,0:0:0:0:
402,192,241116,1,0,0:0:0:0:
109,192,241203,1,0,0:0:0:0:
329,192,241203,1,0,0:0:0:0:
182,192,241290,1,0,0:0:0:0:
475,192,241290,1,0,0:0:0:0:
36,192,241378,1,0,0:0:0:0:
256,192,241378,1,2,0:0:0:0:
402,192,241378,1,0,0:0:0:0:
329,192,241378,1,0,0:0:0:0:
36,192,241552,1,0,0:0:0:0:
329,192,241552,1,0,0:0:0:0:
109,192,241639,1,0,0:0:0:0:
182,192,241683,1,0,0:0:0:0:
256,192,241726,1,8,0:0:0:0:
402,192,241726,1,2,0:0:0:0:
475,192,241726,1,8,0:0:0:0:
36,192,241814,1,0,0:0:0:0:
109,192,241814,1,0,0:0:0:0:
182,192,241901,1,0,0:0:0:0:
402,192,241901,1,0,0:0:0:0:
256,192,241988,1,0,0:0:0:0:
36,192,241988,1,0,0:0:0:0:
329,192,242075,1,2,0:0:0:0:
475,192,242075,1,0,0:0:0:0:
402,192,242075,1,0,0:0:0:0:
109,192,242162,1,0,0:0:0:0:
256,192,242250,1,0,0:0:0:0:
402,192,242250,1,0,0:0:0:0:
109,192,242337,1,0,0:0:0:0:
256,192,242424,1,2,0:0:0:0:
329,192,242424,1,8,0:0:0:0:
475,192,242424,1,8,0:0:0:0:
109,192,242511,1,0,0:0:0:0:
402,192,242598,1,0,0:0:0:0:
475,192,242598,1,0,0:0:0:0:
109,192,242686,1,0,0:0:0:0:
256,192,242773,1,0,0:0:0:0:
329,192,242773,1,2,0:0:0:0:
475,192,242773,1,0,0:0:0:0:
402,192,242773,1,0,0:0:0:0:
182,192,242860,1,0,0:0:0:0:
475,192,242947,1,0,0:0:0:0:
109,192,242947,1,0,0:0:0:0:
36,192,243034,1,0,0:0:0:0:
402,192,243034,1,0,0:0:0:0:
182,192,243122,1,8,0:0:0:0:
256,192,243122,1,2,0:0:0:0:
329,192,243122,1,8,0:0:0:0:
36,192,243209,1,0,0:0:0:0:
402,192,243209,1,0,0:0:0:0:
109,192,243296,1,0,0:0:0:0:
329,192,243296,1,0,0:0:0:0:
256,192,243383,1,0,0:0:0:0:
475,192,243383,1,0,0:0:0:0:
36,192,243471,1,0,0:0:0:0:
182,192,243471,1,2,0:0:0:0:
402,192,243471,1,0,0:0:0:0:
329,192,243558,1,0,0:0:0:0:
109,192,243558,1,0,0:0:0:0:
182,192,243645,1,0,0:0:0:0:
475,192,243645,1,0,0:0:0:0:
36,192,243732,1,0,0:0:0:0:
256,192,243732,1,0,0:0:0:0:
329,192,243819,1,8,0:0:0:0:
402,192,243819,1,2,0:0:0:0:
475,192,243819,1,8,0:0:0:0:
109,192,243878,1,0,0:0:0:0:
182,192,243936,1,0,0:0:0:0:
256,192,243994,1,0,0:0:0:0:
329,192,244052,1,0,0:0:0:0:
402,192,244110,1,0,0:0:0:0:
475,192,244168,1,0,0:0:0:0:
36,192,244168,1,2,0:0:0:0:
109,192,244168,1,0,0:0:0:0:
182,192,244168,1,0,0:0:0:0:
402,192,244430,1,0,0:0:0:0:
182,192,244430,1,0,0:0:0:0:
329,192,244604,1,0,0:0:0:0:
475,192,244691,1,0,0:0:0:0:
109,192,244691,1,0,0:0:0:0:
329,192,244779,1,0,0:0:0:0:
36,192,244866,1,0,0:0:0:0:
256,192,244866,1,2,0:0:0:0:
475,192,244866,1,0,0:0:0:0:
109,192,244953,1,0,0:0:0:0:
402,192,245040,1,0,0:0:0:0:
256,192,245040,1,0,0:0:0:0:
109,192,245128,1,2,0:0:0:0:
329,192,245128,1,0,0:0:0:0:
36,192,245215,1,8,0:0:0:0:
256,192,245215,1,2,0:0:0:0:
475,192,245215,1,8,0:0:0:0:
109,192,245302,1,0,0:0:0:0:
402,192,245389,1,0,0:0:0:0:
475,192,245389,1,0,0:0:0:0:
182,192,245389,1,2,0:0:0:0:
329,192,245476,1,0,0:0:0:0:
36,192,245476,1,0,0:0:0:0:
109,192,245564,1,0,0:0:0:0:
182,192,245564,1,0,0:0:0:0:
256,192,245564,1,2,0:0:0:0:
402,192,245564,1,0,0:0:0:0:
329,192,245651,1,0,0:0:0:0:
475,192,245651,1,0,0:0:0:0:
182,192,245738,1,0,0:0:0:0:
402,192,245738,1,0,0:0:0:0:
256,192,245825,1,0,0:0:0:0:
36,192,245825,1,0,0:0:0:0:
109,192,245912,1,8,0:0:0:0:
329,192,245912,1,2,0:0:0:0:
475,192,245912,1,8,0:0:0:0:
402,192,246000,1,0,0:0:0:0:
36,192,246000,1,0,0:0:0:0:
182,192,246087,1,0,0:0:0:0:
256,192,246087,1,0,0:0:0:0:
109,192,246174,1,0,0:0:0:0:
329,192,246174,1,0,0:0:0:0:
402,192,246261,1,2,0:0:0:0:
475,192,246261,1,0,0:0:0:0:
36,192,246261,1,0,0:0:0:0:
182,192,246348,1,0,0:0:0:0:
256,192,246436,1,0,0:0:0:0:
329,192,246436,1,0,0:0:0:0:
182,192,246523,1,0,0:0:0:0:
402,192,246610,1,2,0:0:0:0:
475,192,246610,1,8,0:0:0:0:
36,192,246610,1,8,0:0:0:0:
182,192,246697,1,0,0:0:0:0:
329,192,246784,1,0,0:0:0:0:
475,192,246784,1,0,0:0:0:0:
182,192,246872,1,0,0:0:0:0:
36,192,246959,1,0,0:0:0:0:
109,192,246959,1,0,0:0:0:0:
402,192,246959,1,0,0:0:0:0:
256,192,246959,1,2,0:0:0:0:
182,192,247221,1,0,0:0:0:0:
329,192,247221,1,2,0:0:0:0:
475,192,247221,1,0,0:0:0:0:
36,192,247308,1,8,0:0:0:0:
256,192,247308,1,2,0:0:0:0:
109,192,247366,1,0,0:0:0:0:
329,192,247366,1,2,0:0:0:0:
182,192,247424,1,0,0:0:0:0:
402,192,247424,1,2,0:0:0:0:
475,192,247482,1,2,0:0:0:0:
256,192,247482,1,0,0:0:0:0:
36,192,247482,1,0,0:0:0:0:
109,192,247657,1,0,0:0:0:0:
329,192,247657,1,2,0:0:0:0:
182,192,247657,1,0,0:0:0:0:
402,192,247657,1,0,0:0:0:0:
402,192,247831,1,0,0:0:0:0:
329,192,247831,1,2,0:0:0:0:
475,192,247831,1,0,0:0:0:0:
256,192,247889,1,0,0:0:0:0:
182,192,247947,1,0,0:0:0:0:
36,192,248005,1,8,0:0:0:0:
475,192,248005,1,2,0:0:0:0:
109,192,248005,1,8,0:0:0:0:
402,192,248049,1,2,0:0:0:0:
329,192,248093,1,2,0:0:0:0:
256,192,248136,1,2,0:0:0:0:
182,192,248180,1,0,0:0:0:0:
475,192,248180,1,4,0:0:0:0:
109,192,248180,1,2,0:0:0:0:
329,192,248267,1,0,0:0:0:0:
402,192,248267,1,4,0:0:0:0:
36,192,248267,1,2,0:0:0:0:
182,192,248354,1,0,0:0:0:0:
475,192,248354,1,4,0:0:0:0:
256,192,248354,1,4,0:0:0:0:
109,192,248354,1,2,0:0:0:0:
36,192,248529,1,0,0:0:0:0:
109,192,248529,1,0,0:0:0:0:
475,192,248529,1,2,0:0:0:0:
182,192,248572,1,0,0:0:0:0:
256,192,248616,1,0,0:0:0:0:
329,192,248659,1,0,0:0:0:0:
402,192,248703,1,4,0:0:0:0:
36,192,248703,1,4,0:0:0:0:
475,192,248703,1,2,0:0:0:0:
109,192,248747,1,0,0:0:0:0:
182,192,248790,1,0,0:0:0:0:
256,192,248834,1,0,0:0:0:0:
475,192,248878,1,0,0:0:0:0:
402,192,248921,1,0,0:0:0:0:
329,192,248965,1,0,0:0:0:0:
256,192,249008,1,0,0:0:0:0:
182,192,249052,1,0,0:0:0:0:
109,192,249052,1,0,0:0:0:0:
475,192,249139,1,0,0:0:0:0:
36,192,249226,1,0,0:0:0:0:
182,192,249226,1,2,0:0:0:0:
256,192,249226,1,0,0:0:0:0:
329,192,249270,1,0,0:0:0:0:
402,192,249314,1,0,0:0:0:0:
475,192,249357,1,0,0:0:0:0:
109,192,249401,1,4,0:0:0:0:
182,192,249401,1,4,0:0:0:0:
256,192,249401,1,2,0:0:0:0:
36,192,249444,1,0,0:0:0:0:
475,192,249488,1,0,0:0:0:0:
402,192,249532,1,0,0:0:0:0:
329,192,249575,1,0,0:0:0:0:
256,192,249619,1,0,0:0:0:0:
182,192,249662,1,0,0:0:0:0:
109,192,249706,1,0,0:0:0:0:
36,192,249750,1,0,0:0:0:0:
475,192,249750,1,0,0:0:0:0:
402,192,249837,1,0,0:0:0:0:
109,192,249924,1,0,0:0:0:0:
182,192,249924,1,0,0:0:0:0:
256,192,249924,1,2,0:0:0:0:
329,192,249968,1,0,0:0:0:0:
402,192,250011,1,0,0:0:0:0:
475,192,250055,1,0,0:0:0:0:
36,192,250098,1,4,0:0:0:0:
109,192,250098,1,4,0:0:0:0:
182,192,250098,1,2,0:0:0:0:
256,192,250142,1,0,0:0:0:0:
329,192,250186,1,0,0:0:0:0:
402,192,250229,1,0,0:0:0:0:
475,192,250273,1,0,0:0:0:0:
256,192,250316,1,0,0:0:0:0:
182,192,250360,1,2,0:0:0:0:
109,192,250404,1,0,0:0:0:0:
36,192,250447,1,0,0:0:0:0:
329,192,250447,1,2,0:0:0:0:
475,192,250447,1,0,0:0:0:0:
402,192,250447,1,8,0:0:0:0:
109,192,250534,1,2,0:0:0:0:
256,192,250534,1,0,0:0:0:0:
182,192,250534,1,8,0:0:0:0:
329,192,250622,1,2,0:0:0:0:
402,192,250622,1,8,0:0:0:0:
475,192,250622,1,0,0:0:0:0:
36,192,250709,1,2,0:0:0:0:
182,192,250709,1,0,0:0:0:0:
109,192,250709,1,8,0:0:0:0:
329,192,250796,1,8,0:0:0:0:
256,192,250796,1,2,0:0:0:0:
402,192,250796,1,0,0:0:0:0:
182,192,250883,1,8,0:0:0:0:
109,192,250883,1,2,0:0:0:0:
36,192,250883,1,0,0:0:0:0:
475,192,250971,1,8,0:0:0:0:
329,192,250971,1,2,0:0:0:0:
402,192,250971,1,0,0:0:0:0:
182,192,251058,1,2,0:0:0:0:
256,192,251058,1,0,0:0:0:0:
109,192,251058,1,8,0:0:0:0:
475,192,251145,1,2,0:0:0:0:
402,192,251145,1,4,0:0:0:0:
36,192,251145,1,4,0:0:0:0:
329,192,251145,1,0,0:0:0:0:
109,192,251232,1,0,0:0:0:0:
256,192,251232,1,0,0:0:0:0:
182,192,251319,1,0,0:0:0:0:
329,192,251319,1,0,0:0:0:0:
402,192,251407,1,0,0:0:0:0:
256,192,251407,1,0,0:0:0:0:
36,192,251494,1,8,0:0:0:0:
109,192,251494,1,2,0:0:0:0:
475,192,251494,1,8,0:0:0:0:
182,192,251581,1,0,0:0:0:0:
329,192,251581,1,0,0:0:0:0:
256,192,251668,1,0,0:0:0:0:
402,192,251668,1,0,0:0:0:0:
329,192,251755,1,0,0:0:0:0:
475,192,251755,1,0,0:0:0:0:
36,192,251843,1,0,0:0:0:0:
109,192,251843,1,0,0:0:0:0:
402,192,251843,1,2,0:0:0:0:
182,192,251930,1,0,0:0:0:0:
329,192,251930,1,0,0:0:0:0:
256,192,252017,1,0,0:0:0:0:
475,192,252017,1,0,0:0:0:0:
402,192,252104,1,0,0:0:0:0:
36,192,252104,1,0,0:0:0:0:
109,192,252191,1,8,0:0:0:0:
182,192,252191,1,2,0:0:0:0:
329,192,252191,1,8,0:0:0:0:
256,192,252279,1,0,0:0:0:0:
475,192,252279,1,0,0:0:0:0:
329,192,252366,1,0,0:0:0:0:
36,192,252366,1,0,0:0:0:0:
402,192,252453,1,0,0:0:0:0:
109,192,252453,1,0,0:0:0:0:
256,192,252540,1,2,0:0:0:0:
182,192,252540,1,0,0:0:0:0:
475,192,252540,1,0,0:0:0:0:
329,192,252540,1,0,0:0:0:0:
182,192,252715,1,0,0:0:0:0:
329,192,252715,1,0,0:0:0:0:
109,192,252773,1,0,0:0:0:0:
402,192,252773,1,0,0:0:0:0:
36,192,252831,1,0,0:0:0:0:
475,192,252831,1,0,0:0:0:0:
182,192,252889,1,8,0:0:0:0:
256,192,252889,1,2,0:0:0:0:
329,192,252889,1,8,0:0:0:0:
182,192,253064,1,0,0:0:0:0:
329,192,253064,1,0,0:0:0:0:
109,192,253122,1,0,0:0:0:0:
402,192,253122,1,0,0:0:0:0:
36,192,253180,1,0,0:0:0:0:
475,192,253180,1,0,0:0:0:0:
402,192,253238,1,0,0:0:0:0:
256,192,253238,1,2,0:0:0:0:
109,192,253238,1,0,0:0:0:0:
36,192,253412,1,0,0:0:0:0:
256,192,253412,1,0,0:0:0:0:
109,192,253471,1,0,0:0:0:0:
329,192,253471,1,0,0:0:0:0:
182,192,253529,1,0,0:0:0:0:
402,192,253529,1,0,0:0:0:0:
475,192,253587,1,8,0:0:0:0:
256,192,253587,1,2,0:0:0:0:
36,192,253587,1,8,0:0:0:0:
109,192,253761,1,0,0:0:0:0:
182,192,253819,1,0,0:0:0:0:
256,192,253878,1,0,0:0:0:0:
329,192,253936,1,2,0:0:0:0:
475,192,253936,1,0,0:0:0:0:
402,192,253936,1,0,0:0:0:0:
36,192,253936,1,0,0:0:0:0:
256,192,254023,1,0,0:0:0:0:
109,192,254023,1,0,0:0:0:0:
182,192,254110,1,0,0:0:0:0:
329,192,254110,1,0,0:0:0:0:
402,192,254197,1,0,0:0:0:0:
475,192,254197,1,0,0:0:0:0:
256,192,254284,1,8,0:0:0:0:
109,192,254284,1,2,0:0:0:0:
36,192,254284,1,8,0:0:0:0:
182,192,254372,1,0,0:0:0:0:
329,192,254372,1,0,0:0:0:0:
402,192,254459,1,0,0:0:0:0:
109,192,254459,1,0,0:0:0:0:
329,192,254546,1,0,0:0:0:0:
36,192,254546,1,0,0:0:0:0:
256,192,254633,1,2,0:0:0:0:
109,192,254633,1,0,0:0:0:0:
475,192,254633,1,0,0:0:0:0:
182,192,254721,1,0,0:0:0:0:
402,192,254721,1,0,0:0:0:0:
329,192,254808,1,0,0:0:0:0:
109,192,254808,1,0,0:0:0:0:
36,192,254895,1,0,0:0:0:0:
256,192,254895,1,0,0:0:0:0:
109,192,254982,1,8,0:0:0:0:
402,192,254982,1,2,0:0:0:0:
475,192,254982,1,8,0:0:0:0:
182,192,255069,1,0,0:0:0:0:
329,192,255069,1,0,0:0:0:0:
402,192,255157,1,0,0:0:0:0:
109,192,255157,1,0,0:0:0:0:
36,192,255244,1,0,0:0:0:0:
256,192,255244,1,0,0:0:0:0:
182,192,255331,1,0,0:0:0:0:
329,192,255331,1,2,0:0:0:0:
475,192,255331,1,0,0:0:0:0:
36,192,255505,1,0,0:0:0:0:
402,192,255505,1,0,0:0:0:0:
109,192,255564,1,0,0:0:0:0:
182,192,255622,1,0,0:0:0:0:
256,192,255680,1,2,0:0:0:0:
475,192,255680,1,8,0:0:0:0:
329,192,255680,1,8,0:0:0:0:
36,192,255738,1,0,0:0:0:0:
109,192,255796,1,0,0:0:0:0:
182,192,255854,1,0,0:0:0:0:
256,192,255912,1,0,0:0:0:0:
329,192,255971,1,0,0:0:0:0:
475,192,256029,1,0,0:0:0:0:
402,192,256029,1,2,0:0:0:0:
36,192,256029,1,0,0:0:0:0:
109,192,256203,1,0,0:0:0:0:
182,192,256203,1,0,0:0:0:0:
329,192,256261,1,0,0:0:0:0:
402,192,256319,1,0,0:0:0:0:
475,192,256378,1,8,0:0:0:0:
256,192,256378,1,2,0:0:0:0:
36,192,256378,1,8,0:0:0:0:
109,192,256436,1,0,0:0:0:0:
182,192,256494,1,0,0:0:0:0:
256,192,256552,1,0,0:0:0:0:
329,192,256610,1,0,0:0:0:0:
402,192,256668,1,0,0:0:0:0:
475,192,256726,1,0,0:0:0:55:crashR.wav
36,192,256726,1,0,0:0:0:0:
109,192,256726,1,2,0:0:0:0:
182,192,256726,1,0,0:0:0:55:crashR.wav
402,192,256784,1,0,0:0:0:0:
329,192,256843,1,0,0:0:0:0:
256,192,256901,1,0,0:0:0:0:
182,192,256901,1,0,0:0:0:0:
109,192,256959,1,0,0:0:0:0:
36,192,257017,1,0,0:0:0:0:
329,192,257075,1,8,0:0:0:0:
256,192,257075,1,8,0:0:0:0:
182,192,257133,1,0,0:0:0:0:
109,192,257191,1,0,0:0:0:0:
329,192,257250,1,0,0:0:0:0:
402,192,257250,1,0,0:0:0:0:
256,192,257308,1,0,0:0:0:0:
182,192,257366,1,0,0:0:0:0:
475,192,257424,1,0,0:0:0:0:
329,192,257424,1,0,0:0:0:0:
256,192,257511,1,0,0:0:0:0:
402,192,257511,1,0,0:0:0:0:
329,192,257598,1,0,0:0:0:0:
182,192,257598,1,0,0:0:0:0:
256,192,257686,1,0,0:0:0:0:
109,192,257686,1,0,0:0:0:0:
36,192,257773,1,8,0:0:0:0:
475,192,257773,1,8,0:0:0:0:
109,192,257860,1,0,0:0:0:0:
329,192,257860,1,0,0:0:0:0:
182,192,257947,1,0,0:0:0:0:
402,192,257947,1,0,0:0:0:0:
36,192,257947,1,2,0:0:0:0:
475,192,258034,1,0,0:0:0:0:
256,192,258034,1,0,0:0:0:0:
36,192,258122,1,0,0:0:0:0:
109,192,258122,1,2,0:0:0:0:
329,192,258122,1,0,0:0:0:55:crashR.wav
402,192,258122,1,0,0:0:0:55:crashR.wav
182,192,258180,1,0,0:0:0:0:
256,192,258238,1,0,0:0:0:0:
329,192,258296,1,0,0:0:0:0:
36,192,258296,1,0,0:0:0:0:
109,192,258354,1,0,0:0:0:0:
182,192,258412,1,0,0:0:0:0:
256,192,258471,1,8,0:0:0:0:
329,192,258471,1,8,0:0:0:0:
402,192,258529,1,0,0:0:0:0:
475,192,258587,1,0,0:0:0:0:
182,192,258645,1,0,0:0:0:0:
256,192,258645,1,0,0:0:0:0:
329,192,258703,1,0,0:0:0:0:
109,192,258732,1,2,0:0:0:0:
36,192,258732,1,0,0:0:0:0:
402,192,258761,1,0,0:0:0:0:
256,192,258819,1,0,0:0:0:0:
182,192,258819,1,0,0:0:0:0:
329,192,258907,1,0,0:0:0:0:
36,192,258907,1,0,0:0:0:0:
182,192,258994,1,0,0:0:0:0:
402,192,258994,1,0,0:0:0:0:
109,192,258994,1,2,0:0:0:0:
256,192,259081,1,0,0:0:0:0:
475,192,259081,1,0,0:0:0:0:
36,192,259168,1,8,0:0:0:0:
329,192,259168,1,8,0:0:0:0:
109,192,259255,1,2,0:0:0:0:
182,192,259255,1,0,0:0:0:0:
402,192,259255,1,0,0:0:0:0:
256,192,259343,1,2,0:0:0:0:
36,192,259343,1,0,0:0:0:0:
329,192,259343,1,0,0:0:0:0:
182,192,259430,1,2,0:0:0:0:
475,192,259430,1,0,0:0:0:0:
402,192,259430,1,0,0:0:0:0:
36,192,259517,1,0,0:0:0:0:
109,192,259517,1,2,0:0:0:0:
256,192,259517,1,0,0:0:0:55:crashR.wav
329,192,259517,1,0,0:0:0:55:crashR.wav
402,192,259575,1,0,0:0:0:0:
475,192,259633,1,0,0:0:0:0:
182,192,259691,1,0,0:0:0:0:
256,192,259691,1,0,0:0:0:0:
329,192,259750,1,0,0:0:0:0:
402,192,259808,1,0,0:0:0:0:
109,192,259866,1,8,0:0:0:0:
182,192,259866,1,8,0:0:0:0:
256,192,259924,1,0,0:0:0:0:
329,192,259982,1,0,0:0:0:0:
36,192,260040,1,0,0:0:0:0:
109,192,260040,1,0,0:0:0:0:
182,192,260098,1,0,0:0:0:0:
256,192,260157,1,0,0:0:0:0:
36,192,260215,1,0,0:0:0:0:
402,192,260215,1,0,0:0:0:0:
109,192,260302,1,0,0:0:0:0:
329,192,260302,1,0,0:0:0:0:
182,192,260389,1,0,0:0:0:0:
475,192,260389,1,0,0:0:0:0:
256,192,260476,1,0,0:0:0:0:
402,192,260476,1,0,0:0:0:0:
36,192,260564,1,8,0:0:0:0:
329,192,260564,1,8,0:0:0:0:
109,192,260651,1,0,0:0:0:0:
402,192,260651,1,0,0:0:0:0:
182,192,260738,1,0,0:0:0:0:
475,192,260738,1,0,0:0:0:0:
256,192,260738,1,2,0:0:0:0:
329,192,260825,1,0,0:0:0:0:
36,192,260825,1,0,0:0:0:0:
109,192,260912,1,0,0:0:0:0:
182,192,260912,1,2,0:0:0:0:
256,192,260912,1,0,0:0:0:55:crashR.wav
475,192,260912,1,0,0:0:0:55:crashR.wav
402,192,260971,1,0,0:0:0:0:
329,192,261029,1,0,0:0:0:0:
182,192,261087,1,0,0:0:0:0:
256,192,261087,1,0,0:0:0:0:
109,192,261145,1,0,0:0:0:0:
36,192,261203,1,0,0:0:0:0:
256,192,261261,1,8,0:0:0:0:
329,192,261261,1,8,0:0:0:0:
182,192,261319,1,0,0:0:0:0:
109,192,261378,1,0,0:0:0:0:
329,192,261436,1,0,0:0:0:0:
36,192,261436,1,0,0:0:0:0:
256,192,261494,1,0,0:0:0:0:
402,192,261523,1,2,0:0:0:0:
475,192,261523,1,0,0:0:0:0:
182,192,261552,1,0,0:0:0:0:
109,192,261610,1,0,0:0:0:0:
329,192,261610,1,0,0:0:0:0:
36,192,261697,1,0,0:0:0:0:
256,192,261697,1,0,0:0:0:0:
182,192,261784,1,0,0:0:0:0:
402,192,261784,1,2,0:0:0:0:
475,192,261784,1,0,0:0:0:0:
109,192,261872,1,0,0:0:0:0:
329,192,261872,1,0,0:0:0:0:
36,192,261959,1,8,0:0:0:0:
256,192,261959,1,8,0:0:0:0:
182,192,262046,1,0,0:0:0:0:
402,192,262046,1,0,0:0:0:0:
475,192,262046,1,2,0:0:0:0:
109,192,262133,1,0,0:0:0:0:
256,192,262133,1,0,0:0:0:0:
329,192,262221,1,0,0:0:0:0:
182,192,262221,1,2,0:0:0:0:
402,192,262221,1,0,0:0:0:0:
36,192,262308,1,2,0:0:0:0:
475,192,262308,1,0,0:0:0:55:crashR.wav
256,192,262308,1,0,0:0:0:55:crashR.wav
402,192,262366,1,0,0:0:0:0:
109,192,262366,1,0,0:0:0:0:
329,192,262424,1,0,0:0:0:0:
182,192,262424,1,0,0:0:0:0:
36,192,262482,1,0,0:0:0:0:
475,192,262482,1,0,0:0:0:0:
109,192,262540,1,0,0:0:0:0:
402,192,262540,1,0,0:0:0:0:
182,192,262598,1,0,0:0:0:0:
329,192,262598,1,0,0:0:0:0:
36,192,262657,1,8,0:0:0:0:
475,192,262657,1,8,0:0:0:0:
109,192,262715,1,0,0:0:0:0:
402,192,262715,1,0,0:0:0:0:
182,192,262773,1,0,0:0:0:0:
329,192,262773,1,0,0:0:0:0:
36,192,262831,1,0,0:0:0:0:
475,192,262831,1,0,0:0:0:0:
109,192,262889,1,0,0:0:0:0:
402,192,262889,1,0,0:0:0:0:
182,192,262947,1,0,0:0:0:0:
329,192,262947,1,0,0:0:0:0:
256,192,263005,1,0,0:0:0:0:
475,192,263005,1,0,0:0:0:0:
36,192,263093,1,0,0:0:0:0:
402,192,263093,1,0,0:0:0:0:
109,192,263180,1,0,0:0:0:0:
329,192,263180,1,0,0:0:0:0:
182,192,263267,1,0,0:0:0:0:
475,192,263267,1,0,0:0:0:0:
36,192,263354,1,8,0:0:0:0:
256,192,263354,1,8,0:0:0:0:
109,192,263441,1,0,0:0:0:0:
329,192,263441,1,0,0:0:0:0:
182,192,263529,1,0,0:0:0:0:
402,192,263529,1,0,0:0:0:0:
475,192,263529,1,2,0:0:0:0:
329,192,263616,1,0,0:0:0:0:
36,192,263616,1,0,0:0:0:0:
256,192,263703,1,0,0:0:0:55:crashR.wav
182,192,263703,1,2,0:0:0:0:
475,192,263703,1,0,0:0:0:55:crashR.wav
109,192,263761,1,0,0:0:0:0:
402,192,263761,1,0,0:0:0:0:
36,192,263819,1,0,0:0:0:0:
329,192,263819,1,0,0:0:0:0:
182,192,263878,1,0,0:0:0:0:
475,192,263878,1,0,0:0:0:0:
109,192,263936,1,0,0:0:0:0:
402,192,263936,1,0,0:0:0:0:
36,192,263994,1,0,0:0:0:0:
329,192,263994,1,0,0:0:0:0:
475,192,264052,1,8,0:0:0:0:
182,192,264052,1,8,0:0:0:0:
402,192,264110,1,0,0:0:0:0:
109,192,264110,1,0,0:0:0:0:
329,192,264168,1,0,0:0:0:0:
36,192,264168,1,0,0:0:0:0:
182,192,264226,1,0,0:0:0:0:
475,192,264226,1,0,0:0:0:0:
109,192,264284,1,0,0:0:0:0:
402,192,264284,1,0,0:0:0:0:
36,192,264343,1,0,0:0:0:0:
329,192,264343,1,0,0:0:0:0:
256,192,264401,1,0,0:0:0:0:
475,192,264401,1,0,0:0:0:0:
36,192,264488,1,0,0:0:0:0:
182,192,264488,1,2,0:0:0:0:
329,192,264488,1,0,0:0:0:0:
256,192,264575,1,2,0:0:0:0:
402,192,264575,1,0,0:0:0:0:
109,192,264575,1,0,0:0:0:0:
329,192,264662,1,2,0:0:0:0:
475,192,264662,1,0,0:0:0:0:
182,192,264662,1,0,0:0:0:0:
256,192,264750,1,8,0:0:0:0:
109,192,264750,1,8,0:0:0:0:
402,192,264750,1,2,0:0:0:0:
36,192,264837,1,0,0:0:0:0:
182,192,264837,1,0,0:0:0:0:
329,192,264837,1,2,0:0:0:0:
109,192,264924,1,0,0:0:0:0:
256,192,264924,1,2,0:0:0:0:
402,192,264924,1,0,0:0:0:0:
475,192,265011,1,0,0:0:0:0:
329,192,265011,1,2,0:0:0:0:
182,192,265011,1,0,0:0:0:0:
36,192,265098,1,0,0:0:0:50:crashL.wav
109,192,265098,1,0,0:0:0:0:
256,192,265098,1,2,0:0:0:0:
402,192,265098,1,0,0:0:0:50:crashR.wav
475,192,265098,1,0,0:0:0:0:
329,192,265273,1,0,0:0:0:0:
256,192,265447,1,2,0:0:0:0:
402,192,265447,1,8,0:0:0:0:
109,192,265447,1,8,0:0:0:0:
36,192,265622,1,0,0:0:0:0:
329,192,265796,1,2,0:0:0:0:
182,192,265796,1,0,0:0:0:0:
475,192,265796,1,0,0:0:0:0:
109,192,265971,1,0,0:0:0:0:
36,192,266145,1,8,0:0:0:0:
182,192,266145,1,2,0:0:0:0:
329,192,266145,1,8,0:0:0:0:
402,192,266319,1,0,0:0:0:0:
475,192,266494,1,0,0:0:0:0:
256,192,266494,1,2,0:0:0:0:
36,192,266494,1,0,0:0:0:0:
109,192,266668,1,0,0:0:0:0:
182,192,266843,1,8,0:0:0:0:
329,192,266843,1,2,0:0:0:0:
402,192,266843,1,8,0:0:0:0:
475,192,267017,1,0,0:0:0:0:
36,192,267191,1,0,0:0:0:0:
109,192,267191,1,2,0:0:0:0:
256,192,267191,1,0,0:0:0:0:
329,192,267366,1,0,0:0:0:0:
402,192,267540,1,8,0:0:0:0:
182,192,267540,1,2,0:0:0:0:
36,192,267540,1,8,0:0:0:0:
329,192,267715,1,0,0:0:0:0:
475,192,267889,1,0,0:0:0:0:
256,192,267889,1,2,0:0:0:0:
109,192,267889,1,0,0:0:0:0:
36,192,268064,1,0,0:0:0:0:
109,192,268238,1,8,0:0:0:0:
329,192,268238,1,2,0:0:0:0:
475,192,268238,1,8,0:0:0:0:
182,192,268412,1,0,0:0:0:0:
109,192,268587,1,0,0:0:0:0:
256,192,268587,1,2,0:0:0:0:
475,192,268587,1,0,0:0:0:0:
36,192,268761,1,0,0:0:0:0:
109,192,268936,1,8,0:0:0:0:
329,192,268936,1,2,0:0:0:0:
475,192,268936,1,8,0:0:0:0:
182,192,269110,1,0,0:0:0:0:
256,192,269197,1,0,0:0:0:0:
329,192,269284,1,0,0:0:0:0:
402,192,269284,1,2,0:0:0:0:
475,192,269284,128,0,269633:0:0:0:0:
36,192,269459,1,0,0:0:0:0:
402,192,269633,128,8,269982:0:0:0:0:
256,192,269633,1,8,0:0:0:0:
329,192,269633,1,2,0:0:0:0:
36,192,269808,1,0,0:0:0:0:
109,192,269895,1,0,0:0:0:0:
329,192,269982,128,0,270331:0:0:0:0:
256,192,269982,1,2,0:0:0:0:
182,192,269982,1,0,0:0:0:0:
109,192,270069,1,0,0:0:0:0:
36,192,270157,1,0,0:0:0:0:
475,192,270244,1,0,0:0:0:0:
402,192,270244,1,2,0:0:0:0:
256,192,270331,128,8,270680:0:0:0:0:
182,192,270331,1,2,0:0:0:0:
109,192,270331,1,8,0:0:0:0:
36,192,270505,1,2,0:0:0:0:
475,192,270505,1,0,0:0:0:0:
109,192,270680,1,0,0:0:0:0:
182,192,270680,1,2,0:0:0:0:
402,192,270680,1,0,0:0:0:0:
329,192,270767,1,0,0:0:0:0:
256,192,270854,1,0,0:0:0:0:
475,192,270941,1,0,0:0:0:0:
402,192,271029,1,8,0:0:0:0:
36,192,271029,1,8,0:0:0:0:
109,192,271029,1,2,0:0:0:0:
329,192,271116,1,0,0:0:0:0:
182,192,271203,1,0,0:0:0:0:
109,192,271290,1,0,0:0:0:0:
36,192,271378,1,0,0:0:0:0:
329,192,271378,1,2,0:0:0:0:
475,192,271378,1,0,0:0:0:0:
256,192,271465,1,0,0:0:0:0:
182,192,271552,1,0,0:0:0:0:
109,192,271639,1,0,0:0:0:0:
329,192,271726,1,2,0:0:0:0:
36,192,271726,1,8,0:0:0:0:
475,192,271726,1,8,0:0:0:0:
256,192,271814,1,0,0:0:0:0:
182,192,271901,1,0,0:0:0:0:
402,192,271988,1,0,0:0:0:0:
475,192,272075,1,0,0:0:0:0:
36,192,272075,1,0,0:0:0:0:
109,192,272075,1,2,0:0:0:0:
329,192,272162,1,0,0:0:0:0:
182,192,272250,1,0,0:0:0:0:
475,192,272337,1,2,0:0:0:0:
36,192,272337,1,0,0:0:0:0:
402,192,272424,1,2,0:0:0:0:
182,192,272424,1,8,0:0:0:0:
36,192,272482,1,2,0:0:0:0:
329,192,272511,1,0,0:0:0:0:
109,192,272540,1,2,0:0:0:0:
475,192,272598,1,0,0:0:0:0:
182,192,272598,1,2,0:0:0:0:
256,192,272598,1,0,0:0:0:0:
402,192,272686,1,0,0:0:0:0:
182,192,272773,1,0,0:0:0:0:
256,192,272773,1,2,0:0:0:0:
329,192,272773,1,0,0:0:0:0:
109,192,272860,1,0,0:0:0:0:
36,192,272947,1,0,0:0:0:0:
256,192,272947,1,2,0:0:0:0:
182,192,273034,1,0,0:0:0:0:
109,192,273122,1,8,0:0:0:0:
475,192,273122,1,2,0:0:0:0:
402,192,273165,1,2,0:0:0:0:
36,192,273209,1,0,0:0:0:0:
329,192,273209,1,2,0:0:0:0:
256,192,273253,1,2,0:0:0:0:
182,192,273296,1,0,0:0:0:0:
475,192,273296,1,2,0:0:0:0:
109,192,273383,1,0,0:0:0:0:
402,192,273383,1,2,0:0:0:0:
36,192,273471,1,4,0:0:0:0:
256,192,273471,1,2,0:0:0:0:
329,192,273471,1,4,0:0:0:0:
36,192,273645,1,0,0:0:0:0:
256,192,273645,1,2,0:0:0:0:
329,192,273645,1,0,0:0:0:0:
402,192,273819,128,2,274168:0:0:0:0:
475,192,273819,128,4,274168:0:0:0:0:
182,192,273819,128,4,274168:0:0:0:0:
109,192,274168,1,0,0:0:0:0:
329,192,274168,1,0,0:0:0:0:
109,192,274343,1,0,0:0:0:0:
329,192,274343,1,2,0:0:0:0:
256,192,274343,1,0,0:0:0:0:
402,192,274517,128,2,274866:0:0:0:0:
475,192,274517,128,4,274866:0:0:0:0:
256,192,274517,128,4,274866:0:0:0:0:
36,192,274866,1,0,0:0:0:0:
329,192,274866,1,0,0:0:0:0:
36,192,275040,1,0,0:0:0:0:
109,192,275040,1,0,0:0:0:0:
329,192,275040,1,2,0:0:0:0:
402,192,275215,128,2,275564:0:0:0:0:
475,192,275215,128,4,275564:0:0:0:0:
329,192,275215,128,4,275564:0:0:0:0:
182,192,275476,1,2,0:0:0:0:
36,192,275564,1,0,0:0:0:0:
109,192,275564,1,8,0:0:0:0:
256,192,275564,1,2,0:0:0:0:
329,192,275651,1,8,0:0:0:0:
402,192,275651,1,0,0:0:0:0:
475,192,275651,1,0,0:0:0:0:
182,192,275738,1,0,0:0:0:0:
256,192,275738,1,2,0:0:0:0:
109,192,275738,1,8,0:0:0:0:
402,192,275825,1,8,0:0:0:0:
329,192,275825,1,2,0:0:0:0:
475,192,275825,1,0,0:0:0:0:
182,192,275912,1,0,0:0:0:0:
109,192,275912,1,8,0:0:0:0:
36,192,275912,1,2,0:0:0:0:
256,192,276000,1,0,0:0:0:0:
329,192,276000,1,8,0:0:0:0:
402,192,276000,1,2,0:0:0:0:
36,192,276087,1,2,0:0:0:0:
109,192,276087,1,8,0:0:0:0:
182,192,276087,1,0,0:0:0:0:
475,192,276174,1,2,0:0:0:0:
402,192,276174,1,8,0:0:0:0:
329,192,276174,1,0,0:0:0:0:
36,192,276261,1,0,0:0:0:50:crashL.wav
182,192,276261,1,0,0:0:0:0:
256,192,276261,1,0,0:0:0:0:
109,192,276261,1,2,0:0:0:0:
109,192,276436,1,0,0:0:0:0:
182,192,276610,1,8,0:0:0:0:
256,192,276610,1,2,0:0:0:0:
329,192,276610,1,8,0:0:0:0:
109,192,276784,1,0,0:0:0:0:
36,192,276959,1,0,0:0:0:0:
475,192,276959,1,0,0:0:0:0:
256,192,276959,1,2,0:0:0:0:
402,192,277133,1,0,0:0:0:0:
329,192,277308,1,8,0:0:0:0:
256,192,277308,1,2,0:0:0:0:
182,192,277308,128,8,277657:0:0:0:0:
402,192,277482,1,0,0:0:0:0:
256,192,277657,128,0,278005:0:0:0:0:
475,192,277657,1,0,0:0:0:0:
36,192,277657,1,0,0:0:0:0:
329,192,277657,1,2,0:0:0:0:
109,192,277831,1,0,0:0:0:0:
182,192,278005,128,8,278354:0:0:0:0:
329,192,278005,1,2,0:0:0:0:
475,192,278005,1,8,0:0:0:0:
36,192,278180,1,0,0:0:0:0:
109,192,278354,128,0,278703:0:0:0:0:
402,192,278354,1,2,0:0:0:0:
475,192,278354,1,0,0:0:0:0:
256,192,278529,1,0,0:0:0:0:
36,192,278703,128,8,279052:0:0:0:0:
329,192,278703,1,2,0:0:0:0:
475,192,278703,1,8,0:0:0:0:
182,192,278878,1,0,0:0:0:0:
329,192,279052,1,0,0:0:0:0:
402,192,279052,1,2,0:0:0:0:
475,192,279052,1,0,0:0:0:0:
256,192,279139,1,0,0:0:0:0:
182,192,279226,1,0,0:0:0:0:
109,192,279314,1,0,0:0:0:0:
36,192,279401,1,8,0:0:0:0:
402,192,279401,1,2,0:0:0:0:
475,192,279401,1,8,0:0:0:0:
109,192,279488,1,0,0:0:0:0:
182,192,279575,1,0,0:0:0:0:
256,192,279662,1,0,0:0:0:0:
329,192,279750,1,2,0:0:0:0:
475,192,279750,1,0,0:0:0:0:
36,192,279750,1,0,0:0:0:0:
109,192,279837,1,0,0:0:0:0:
182,192,279924,1,0,0:0:0:0:
256,192,280011,1,0,0:0:0:0:
329,192,280098,1,8,0:0:0:0:
402,192,280098,1,2,0:0:0:0:
475,192,280098,1,8,0:0:0:0:
109,192,280186,1,0,0:0:0:0:
182,192,280273,1,0,0:0:0:0:
256,192,280360,1,0,0:0:0:0:
475,192,280447,1,0,0:0:0:0:
329,192,280447,1,2,0:0:0:0:
36,192,280447,1,0,0:0:0:0:
109,192,280534,1,0,0:0:0:0:
182,192,280622,1,0,0:0:0:0:
256,192,280680,1,0,0:0:0:0:
329,192,280738,1,0,0:0:0:0:
475,192,280796,1,8,0:0:0:0:
36,192,280796,1,8,0:0:0:0:
402,192,280796,1,2,0:0:0:0:
109,192,280854,1,0,0:0:0:0:
256,192,280912,1,0,0:0:0:0:
182,192,280971,1,0,0:0:0:0:
329,192,281029,1,0,0:0:0:0:
402,192,281087,1,0,0:0:0:0:
475,192,281145,1,0,0:0:0:0:
36,192,281145,1,0,0:0:0:0:
109,192,281145,1,2,0:0:0:0:
182,192,281232,1,0,0:0:0:0:
256,192,281232,1,0,0:0:0:0:
329,192,281319,1,0,0:0:0:0:
402,192,281378,1,0,0:0:0:0:
475,192,281436,1,0,0:0:0:0:
36,192,281494,1,8,0:0:0:0:
329,192,281494,1,8,0:0:0:0:
109,192,281494,1,2,0:0:0:0:
182,192,281552,1,0,0:0:0:0:
256,192,281610,1,0,0:0:0:0:
329,192,281668,1,0,0:0:0:0:
402,192,281726,1,0,0:0:0:0:
475,192,281784,1,0,0:0:0:0:
329,192,281843,1,2,0:0:0:0:
256,192,281843,1,0,0:0:0:50:crashR.wav
182,192,281843,1,0,0:0:0:50:crashR.wav
109,192,281901,1,0,0:0:0:0:
402,192,281901,1,0,0:0:0:0:
475,192,281959,1,0,0:0:0:0:
36,192,281959,1,0,0:0:0:0:
182,192,282017,1,0,0:0:0:0:
329,192,282017,1,0,0:0:0:0:
109,192,282075,1,0,0:0:0:0:
402,192,282075,1,0,0:0:0:0:
475,192,282133,1,0,0:0:0:0:
36,192,282133,1,0,0:0:0:0:
329,192,282191,1,8,0:0:0:0:
182,192,282191,1,8,0:0:0:0:
402,192,282250,1,0,0:0:0:0:
256,192,282250,1,0,0:0:0:0:
329,192,282308,1,0,0:0:0:0:
475,192,282308,1,0,0:0:0:0:
36,192,282366,1,0,0:0:0:0:
182,192,282366,1,0,0:0:0:0:
109,192,282424,1,0,0:0:0:0:
256,192,282424,1,0,0:0:0:0:
329,192,282482,1,0,0:0:0:0:
182,192,282482,1,0,0:0:0:0:
402,192,282540,1,0,0:0:0:0:
475,192,282540,1,0,0:0:0:0:
329,192,282628,1,0,0:0:0:0:
109,192,282628,1,0,0:0:0:0:
256,192,282715,1,0,0:0:0:0:
475,192,282715,1,0,0:0:0:0:
402,192,282802,1,0,0:0:0:0:
182,192,282802,1,0,0:0:0:0:
109,192,282889,1,8,0:0:0:0:
329,192,282889,1,8,0:0:0:0:
36,192,282976,1,0,0:0:0:0:
256,192,282976,1,0,0:0:0:0:
109,192,283064,1,0,0:0:0:0:
402,192,283064,1,2,0:0:0:0:
475,192,283064,1,0,0:0:0:0:
182,192,283151,1,0,0:0:0:0:
329,192,283151,1,0,0:0:0:0:
109,192,283238,1,2,0:0:0:0:
36,192,283238,1,0,0:0:0:0:
475,192,283238,1,0,0:0:0:50:crashR.wav
256,192,283238,1,0,0:0:0:50:crashR.wav
402,192,283296,1,0,0:0:0:0:
182,192,283296,1,0,0:0:0:0:
329,192,283354,1,0,0:0:0:0:
109,192,283354,1,0,0:0:0:0:
256,192,283412,1,0,0:0:0:0:
36,192,283412,1,0,0:0:0:0:
182,192,283471,1,0,0:0:0:0:
329,192,283471,1,0,0:0:0:0:
109,192,283529,1,0,0:0:0:0:
402,192,283529,1,0,0:0:0:0:
475,192,283587,1,8,0:0:0:0:
36,192,283587,1,8,0:0:0:0:
402,192,283645,1,0,0:0:0:0:
109,192,283645,1,0,0:0:0:0:
329,192,283703,1,0,0:0:0:0:
182,192,283703,1,0,0:0:0:0:
475,192,283761,1,0,0:0:0:0:
36,192,283761,1,0,0:0:0:0:
402,192,283819,1,0,0:0:0:0:
109,192,283819,1,0,0:0:0:0:
329,192,283878,1,0,0:0:0:0:
182,192,283878,1,0,0:0:0:0:
475,192,283936,1,0,0:0:0:0:
109,192,283936,1,0,0:0:0:0:
36,192,284023,1,0,0:0:0:0:
256,192,284023,1,2,0:0:0:0:
109,192,284110,1,0,0:0:0:0:
329,192,284110,1,2,0:0:0:0:
475,192,284110,1,0,0:0:0:0:
182,192,284197,1,0,0:0:0:0:
402,192,284197,1,0,0:0:0:0:
256,192,284284,1,0,0:0:0:0:
475,192,284284,1,8,0:0:0:0:
36,192,284284,1,8,0:0:0:0:
109,192,284372,1,0,0:0:0:0:
182,192,284372,1,0,0:0:0:0:
329,192,284372,1,2,0:0:0:0:
256,192,284459,1,2,0:0:0:0:
402,192,284459,1,0,0:0:0:0:
475,192,284459,1,0,0:0:0:0:
36,192,284546,1,0,0:0:0:0:
109,192,284546,1,0,0:0:0:0:
329,192,284546,1,2,0:0:0:0:
182,192,284633,1,4,0:0:0:0:
402,192,284633,1,2,0:0:0:0:
475,192,284633,1,4,0:0:0:0:
256,192,284633,128,0,287424:0:0:0:0:
182,192,285157,1,0,0:0:0:0:
329,192,285157,1,0,0:0:0:0:
475,192,285157,1,0,0:0:0:0:
109,192,286029,1,0,0:0:0:0:
402,192,286029,1,0,0:0:0:0:
329,192,286029,1,0,0:0:0:0:
182,192,286552,1,0,0:0:0:0:
36,192,286552,1,0,0:0:0:0:
402,192,286552,1,0,0:0:0:0:
36,192,287075,128,0,287424:0:0:0:0:
475,192,287424,128,0,288471:0:0:0:0:
182,192,287424,1,0,0:0:0:0:
109,192,287424,1,0,0:0:0:0:
402,192,287424,1,0,0:0:0:0:
109,192,287947,1,0,0:0:0:0:
256,192,287947,1,0,0:0:0:0:
329,192,287947,1,0,0:0:0:0:
402,192,288471,128,0,288645:0:0:0:0:
36,192,288645,128,0,289866:0:0:0:0:
182,192,288819,1,0,0:0:0:0:
329,192,288819,1,0,0:0:0:0:
475,192,288819,1,0,0:0:0:0:
475,192,289168,1,0,0:0:0:0:
109,192,289343,1,0,0:0:0:0:
182,192,289343,1,0,0:0:0:0:
256,192,289343,1,0,0:0:0:0:
402,192,289386,1,0,0:0:0:0:
182,192,289582,1,0,0:0:0:0:
475,192,289648,1,0,0:0:0:0:
329,192,289648,1,0,0:0:0:0:
256,192,289844,1,0,0:0:0:0:
109,192,289931,1,0,0:0:0:0:
402,192,290018,1,0,0:0:0:0:
182,192,290084,1,0,0:0:0:0:
475,192,290171,1,0,0:0:0:0:
256,192,290215,1,2,0:0:0:0:
36,192,290215,1,4,0:0:0:0:
329,192,290215,1,2,0:0:0:0:
109,192,290215,1,4,0:0:0:0:
182,192,290302,1,0,0:0:0:0:
109,192,290367,1,0,0:0:0:0:
402,192,290389,1,2,0:0:0:0:
475,192,290389,1,2,0:0:0:0:
329,192,290455,1,0,0:0:0:0:
36,192,290505,1,0,0:0:0:0:
109,192,290564,1,0,0:0:0:0:
256,192,290607,1,0,0:0:0:0:
402,192,290651,1,2,0:0:0:0:
475,192,290651,1,2,0:0:0:0:
182,192,290680,1,0,0:0:0:0:
36,192,290716,1,0,0:0:0:0:
109,192,290760,1,0,0:0:0:0:
256,192,290803,1,0,0:0:0:0:
475,192,290847,1,0,0:0:0:0:
402,192,290912,1,0,0:0:0:0:
36,192,290912,1,2,0:0:0:0:
109,192,290912,1,2,0:0:0:0:
329,192,290971,1,0,0:0:0:0:
475,192,291021,1,0,0:0:0:0:
256,192,291065,1,0,0:0:0:0:
182,192,291152,1,0,0:0:0:0:
329,192,291174,1,2,0:0:0:0:
402,192,291174,1,2,0:0:0:0:
109,192,291239,1,0,0:0:0:0:
36,192,291305,1,0,0:0:0:0:
329,192,291348,1,0,0:0:0:0:
256,192,291414,1,0,0:0:0:0:
475,192,291436,1,2,0:0:0:0:
402,192,291436,1,2,0:0:0:0:
182,192,291457,1,0,0:0:0:0:
109,192,291523,1,0,0:0:0:0:
256,192,291588,1,0,0:0:0:0:
36,192,291654,1,0,0:0:0:0:
329,192,291697,1,2,0:0:0:0:
402,192,291697,1,2,0:0:0:0:
475,192,291726,1,0,0:0:0:0:
256,192,291828,1,0,0:0:0:0:
402,192,291872,1,0,0:0:0:0:
182,192,291959,1,2,0:0:0:0:
36,192,291959,1,2,0:0:0:0:
475,192,291959,1,0,0:0:0:0:
329,192,292003,1,0,0:0:0:0:
109,192,292104,1,0,0:0:0:0:
256,192,292177,1,0,0:0:0:0:
329,192,292221,1,2,0:0:0:0:
402,192,292221,1,2,0:0:0:0:
36,192,292242,1,0,0:0:0:0:
475,192,292308,1,0,0:0:0:0:
109,192,292373,1,0,0:0:0:0:
182,192,292417,1,0,0:0:0:0:
36,192,292482,1,0,0:0:0:0:
329,192,292482,1,2,0:0:0:0:
256,192,292482,1,2,0:0:0:0:
109,192,292569,1,0,0:0:0:0:
402,192,292569,1,2,0:0:0:0:
475,192,292569,1,2,0:0:0:0:
182,192,292657,1,2,0:0:0:0:
36,192,292657,1,0,0:0:0:0:
256,192,292700,1,2,0:0:0:0:
329,192,292744,1,2,0:0:0:0:
402,192,292787,1,2,0:0:0:0:
475,192,292831,1,2,0:0:0:0:
36,192,292831,1,0,0:0:0:35:crashL.wav
109,192,292831,1,0,0:0:0:35:crashL.wav
182,192,292831,1,2,0:0:0:0:
256,192,292918,1,0,0:0:0:0:
402,192,293005,1,0,0:0:0:0:
36,192,293005,1,0,0:0:0:0:
329,192,293093,1,0,0:0:0:0:
109,192,293093,1,0,0:0:0:0:
182,192,293180,1,0,0:0:0:0:
402,192,293180,1,2,0:0:0:0:
475,192,293180,1,2,0:0:0:0:
256,192,293267,1,0,0:0:0:0:
36,192,293267,1,0,0:0:0:0:
109,192,293354,1,0,0:0:0:0:
329,192,293354,1,2,0:0:0:0:
402,192,293354,1,2,0:0:0:0:
182,192,293441,1,0,0:0:0:0:
475,192,293441,1,0,0:0:0:0:
256,192,293529,1,2,0:0:0:0:
36,192,293529,1,0,0:0:0:0:
329,192,293529,1,2,0:0:0:0:
109,192,293616,1,0,0:0:0:0:
402,192,293616,1,0,0:0:0:0:
182,192,293703,1,2,0:0:0:0:
256,192,293703,1,2,0:0:0:0:
475,192,293703,1,0,0:0:0:0:
329,192,293790,1,0,0:0:0:0:
36,192,293790,1,0,0:0:0:0:
109,192,293878,1,2,0:0:0:0:
182,192,293878,1,2,0:0:0:0:
402,192,293878,1,0,0:0:0:0:
256,192,293965,1,0,0:0:0:0:
475,192,293965,1,0,0:0:0:0:
36,192,294052,1,2,0:0:0:0:
109,192,294052,1,2,0:0:0:0:
329,192,294052,1,0,0:0:0:0:
182,192,294139,1,0,0:0:0:0:
402,192,294139,1,0,0:0:0:0:
475,192,294226,1,2,0:0:0:0:
256,192,294226,1,2,0:0:0:0:
36,192,294226,1,0,0:0:0:0:
109,192,294314,1,0,0:0:0:0:
329,192,294314,1,0,0:0:0:0:
402,192,294401,1,2,0:0:0:0:
182,192,294401,1,2,0:0:0:0:
36,192,294401,1,0,0:0:0:0:
329,192,294488,1,0,0:0:0:0:
256,192,294488,1,0,0:0:0:0:
109,192,294575,1,2,0:0:0:0:
402,192,294575,1,0,0:0:0:0:
475,192,294575,1,2,0:0:0:0:
182,192,294662,1,0,0:0:0:0:
36,192,294662,1,0,0:0:0:0:
329,192,294750,1,2,0:0:0:0:
256,192,294750,1,2,0:0:0:0:
475,192,294750,1,0,0:0:0:0:
109,192,294837,1,0,0:0:0:0:
402,192,294837,1,0,0:0:0:0:
182,192,294924,1,0,0:0:0:0:
36,192,294924,1,2,0:0:0:0:
329,192,294924,1,2,0:0:0:0:
256,192,295011,1,0,0:0:0:0:
475,192,295011,1,0,0:0:0:0:
109,192,295098,1,2,0:0:0:0:
182,192,295098,1,2,0:0:0:0:
402,192,295098,1,0,0:0:0:0:
329,192,295186,1,0,0:0:0:0:
36,192,295186,1,0,0:0:0:0:
256,192,295273,1,2,0:0:0:0:
402,192,295273,1,2,0:0:0:0:
475,192,295273,1,0,0:0:0:0:
109,192,295360,1,0,0:0:0:0:
36,192,295360,1,0,0:0:0:0:
329,192,295447,1,0,0:0:0:0:
182,192,295447,1,2,0:0:0:0:
475,192,295447,1,2,0:0:0:0:
36,192,295534,1,0,0:0:0:0:
256,192,295534,1,0,0:0:0:0:
329,192,295622,1,2,0:0:0:0:
402,192,295622,1,2,0:0:0:0:
475,192,295622,1,0,0:0:0:0:
182,192,295709,1,2,0:0:0:0:
109,192,295709,1,2,0:0:0:0:
36,192,295709,1,0,0:0:0:0:
402,192,295796,1,2,0:0:0:0:
329,192,295796,1,0,0:0:0:0:
475,192,295796,1,2,0:0:0:0:
36,192,295883,1,2,0:0:0:0:
256,192,295883,1,0,0:0:0:0:
109,192,295883,1,2,0:0:0:0:
402,192,295971,1,2,0:0:0:0:
475,192,295971,1,0,0:0:0:0:
329,192,295971,1,2,0:0:0:0:
182,192,296058,1,2,0:0:0:0:
36,192,296058,1,0,0:0:0:0:
109,192,296058,1,2,0:0:0:0:
402,192,296145,1,2,0:0:0:0:
256,192,296145,1,0,0:0:0:0:
475,192,296145,1,2,0:0:0:0:
182,192,296232,1,0,0:0:0:0:
36,192,296232,1,2,0:0:0:0:
109,192,296232,1,2,0:0:0:0:
475,192,296319,1,0,0:0:0:0:
329,192,296319,1,2,0:0:0:0:
402,192,296319,1,2,0:0:0:0:
182,192,296407,1,2,0:0:0:0:
256,192,296407,1,0,0:0:0:0:
109,192,296407,1,2,0:0:0:0:
402,192,296494,1,2,0:0:0:0:
329,192,296494,1,0,0:0:0:0:
475,192,296494,1,2,0:0:0:0:
182,192,296581,1,0,0:0:0:0:
36,192,296581,1,2,0:0:0:0:
109,192,296581,1,2,0:0:0:0:
329,192,296668,1,2,0:0:0:0:
475,192,296668,1,0,0:0:0:0:
402,192,296668,1,2,0:0:0:0:
256,192,296755,1,0,0:0:0:0:
109,192,296755,1,2,0:0:0:0:
182,192,296755,1,2,0:0:0:0:
475,192,296843,1,2,0:0:0:0:
402,192,296843,1,2,0:0:0:0:
36,192,296843,1,0,0:0:0:0:
182,192,296930,1,0,0:0:0:0:
329,192,296930,1,2,0:0:0:0:
256,192,296930,1,2,0:0:0:0:
475,192,297017,1,2,0:0:0:0:
109,192,297017,1,0,0:0:0:0:
402,192,297017,1,2,0:0:0:0:
36,192,297104,1,0,0:0:0:0:
256,192,297104,1,2,0:0:0:0:
182,192,297104,1,2,0:0:0:0:
329,192,297191,1,2,0:0:0:0:
402,192,297191,1,2,0:0:0:0:
475,192,297191,1,0,0:0:0:0:
256,192,297279,1,0,0:0:0:0:
109,192,297279,1,2,0:0:0:0:
182,192,297279,1,2,0:0:0:0:
475,192,297366,1,0,0:0:0:0:
36,192,297366,1,0,0:0:0:0:
402,192,297366,1,2,0:0:0:0:
329,192,297409,1,2,0:0:0:0:
256,192,297453,1,2,0:0:0:0:
182,192,297497,1,2,0:0:0:0:
109,192,297540,1,2,0:0:0:0:
36,192,297540,1,2,0:0:0:0:
475,192,297540,1,0,0:0:0:0:
256,192,297628,1,2,0:0:0:0:
329,192,297628,1,2,0:0:0:0:
402,192,297628,1,0,0:0:0:0:
475,192,297715,1,0,0:0:0:0:
36,192,297715,1,0,0:0:0:0:
109,192,297715,1,2,0:0:0:0:
182,192,297758,1,2,0:0:0:0:
256,192,297802,1,2,0:0:0:0:
329,192,297846,1,2,0:0:0:0:
402,192,297889,1,2,0:0:0:0:
475,192,297889,1,2,0:0:0:0:
36,192,297889,1,0,0:0:0:0:
109,192,297976,1,0,0:0:0:0:
182,192,297976,1,2,0:0:0:0:
256,192,297976,1,2,0:0:0:0:
329,192,298064,1,2,0:0:0:0:
402,192,298064,1,0,0:0:0:0:
475,192,298064,1,0,0:0:0:0:
36,192,298107,1,2,0:0:0:0:
109,192,298151,1,2,0:0:0:0:
182,192,298194,1,2,0:0:0:0:
256,192,298238,1,2,0:0:0:0:
329,192,298238,1,2,0:0:0:0:
402,192,298238,1,0,0:0:0:0:
475,192,298238,1,0,0:0:0:0:
36,192,298325,1,0,0:0:0:0:
109,192,298325,1,2,0:0:0:0:
182,192,298325,1,2,0:0:0:0:
256,192,298354,1,0,0:0:0:0:
329,192,298412,1,2,0:0:0:0:
402,192,298412,1,2,0:0:0:0:
475,192,298412,1,0,0:0:0:0:
256,192,298471,1,0,0:0:0:0:
182,192,298500,1,0,0:0:0:0:
109,192,298500,1,2,0:0:0:0:
36,192,298500,1,2,0:0:0:0:
475,192,298529,1,0,0:0:0:0:
256,192,298761,1,0,0:0:0:0:
109,192,298936,128,0,302773:0:0:0:0:
182,192,298936,128,2,302773:0:0:0:0:
475,192,298936,128,0,301072:0:0:0:0:
402,192,298936,128,0,301000:0:0:0:0:
329,192,298936,128,2,300941:0:0:0:0:
36,192,298936,128,0,302773:0:0:0:0:
329,192,301000,1,0,0:0:0:0:
402,192,301072,1,0,0:0:0:0:
475,192,301145,1,0,0:0:0:0:
256,192,301378,128,0,302773:0:0:0:0:
329,192,302773,1,2,0:0:0:0:
475,192,302773,1,2,0:0:0:0:
402,192,302773,1,2,0:0:0:0:
